  0
SECTION
  2
HEADER
  9
$ACADVER
  1
AC1015
  9
$ACADMAINTVER
 70
    20
  9
$DWGCODEPAGE
  3
ANSI_936
  9
$INSBASE
 10
0.0
 20
0.0
 30
0.0
  9
$EXTMIN
 10
695.8008015024363
 20
66.53175762607512
 30
0.0
  9
$EXTMAX
 10
734.0452335406546
 20
189.3157371788292
 30
0.0
  9
$LIMMIN
 10
0.0
 20
0.0
  9
$LIMMAX
 10
12.0
 20
9.0
  9
$ORTHOMODE
 70
     1
  9
$REGENMODE
 70
     1
  9
$FILLMODE
 70
     1
  9
$QTEXTMODE
 70
     0
  9
$MIRRTEXT
 70
     0
  9
$LTSCALE
 40
1.0
  9
$ATTMODE
 70
     1
  9
$TEXTSIZE
 40
0.2
  9
$TRACEWID
 40
0.05
  9
$TEXTSTYLE
  7
STANDARD
  9
$CLAYER
  8
0
  9
$CELTYPE
  6
ByLayer
  9
$CECOLOR
 62
   256
  9
$CELTSCALE
 40
1.0
  9
$DISPSILH
 70
     0
  9
$DIMSCALE
 40
1.0
  9
$DIMASZ
 40
0.65
  9
$DIMEXO
 40
0.88
  9
$DIMDLI
 40
0.015
  9
$DIMRND
 40
0.0
  9
$DIMDLE
 40
0.0
  9
$DIMEXE
 40
0.32
  9
$DIMTP
 40
0.0
  9
$DIMTM
 40
0.0
  9
$DIMTXT
 40
0.65
  9
$DIMCEN
 40
0.09
  9
$DIMTSZ
 40
0.0
  9
$DIMTOL
 70
     0
  9
$DIMLIM
 70
     0
  9
$DIMTIH
 70
     0
  9
$DIMTOH
 70
     0
  9
$DIMSE1
 70
     0
  9
$DIMSE2
 70
     0
  9
$DIMTAD
 70
     0
  9
$DIMZIN
 70
     8
  9
$DIMBLK
  1

  9
$DIMASO
 70
     1
  9
$DIMSHO
 70
     1
  9
$DIMPOST
  1
"
  9
$DIMAPOST
  1
"
  9
$DIMALT
 70
     0
  9
$DIMALTD
 70
     1
  9
$DIMALTF
 40
0.03937
  9
$DIMLFAC
 40
1.0
  9
$DIMTOFL
 70
     1
  9
$DIMTVP
 40
0.0
  9
$DIMTIX
 70
     0
  9
$DIMSOXD
 70
     0
  9
$DIMSAH
 70
     0
  9
$DIMBLK1
  1

  9
$DIMBLK2
  1

  9
$DIMSTYLE
  2
副本STANDARD
  9
$DIMCLRD
 70
     3
  9
$DIMCLRE
 70
     3
  9
$DIMCLRT
 70
     3
  9
$DIMTFAC
 40
1.0
  9
$DIMGAP
 40
0.2
  9
$DIMJUST
 70
     0
  9
$DIMSD1
 70
     0
  9
$DIMSD2
 70
     0
  9
$DIMTOLJ
 70
     1
  9
$DIMTZIN
 70
     8
  9
$DIMALTZ
 70
     8
  9
$DIMALTTZ
 70
     8
  9
$DIMUPT
 70
     0
  9
$DIMDEC
 70
     3
  9
$DIMTDEC
 70
     3
  9
$DIMALTU
 70
     2
  9
$DIMALTTD
 70
     1
  9
$DIMTXSTY
  7
STANDARD
  9
$DIMAUNIT
 70
     0
  9
$DIMADEC
 70
     0
  9
$DIMALTRND
 40
0.0
  9
$DIMAZIN
 70
     0
  9
$DIMDSEP
 70
    46
  9
$DIMATFIT
 70
     3
  9
$DIMFRAC
 70
     2
  9
$DIMLDRBLK
  1

  9
$DIMLUNIT
 70
     5
  9
$DIMLWD
 70
    13
  9
$DIMLWE
 70
    13
  9
$DIMTMOVE
 70
     2
  9
$LUNITS
 70
     2
  9
$LUPREC
 70
     4
  9
$SKETCHINC
 40
0.1
  9
$FILLETRAD
 40
0.0
  9
$AUNITS
 70
     0
  9
$AUPREC
 70
     0
  9
$MENU
  1
.
  9
$ELEVATION
 40
0.0
  9
$PELEVATION
 40
0.0
  9
$THICKNESS
 40
0.0
  9
$LIMCHECK
 70
     0
  9
$CHAMFERA
 40
0.0
  9
$CHAMFERB
 40
0.0
  9
$CHAMFERC
 40
0.0
  9
$CHAMFERD
 40
0.0
  9
$SKPOLY
 70
     0
  9
$TDCREATE
 40
2455434.724808658
  9
$TDUCREATE
 40
2455434.391475324
  9
$TDUPDATE
 40
2458649.344921354
  9
$TDUUPDATE
 40
2458649.011588021
  9
$TDINDWG
 40
0.2063035301
  9
$TDUSRTIMER
 40
0.2062993866
  9
$USRTIMER
 70
     1
  9
$ANGBASE
 50
0.0
  9
$ANGDIR
 70
     0
  9
$PDMODE
 70
     0
  9
$PDSIZE
 40
0.0
  9
$PLINEWID
 40
0.0
  9
$SPLFRAME
 70
     0
  9
$SPLINETYPE
 70
     6
  9
$SPLINESEGS
 70
     8
  9
$HANDSEED
  5
5720
  9
$SURFTAB1
 70
     6
  9
$SURFTAB2
 70
     6
  9
$SURFTYPE
 70
     6
  9
$SURFU
 70
     6
  9
$SURFV
 70
     6
  9
$UCSBASE
  2

  9
$UCSNAME
  2

  9
$UCSORG
 10
0.0
 20
0.0
 30
0.0
  9
$UCSXDIR
 10
1.0
 20
0.0
 30
0.0
  9
$UCSYDIR
 10
0.0
 20
1.0
 30
0.0
  9
$UCSORTHOREF
  2

  9
$UCSORTHOVIEW
 70
     0
  9
$UCSORGTOP
 10
0.0
 20
0.0
 30
0.0
  9
$UCSORGBOTTOM
 10
0.0
 20
0.0
 30
0.0
  9
$UCSORGLEFT
 10
0.0
 20
0.0
 30
0.0
  9
$UCSORGRIGHT
 10
0.0
 20
0.0
 30
0.0
  9
$UCSORGFRONT
 10
0.0
 20
0.0
 30
0.0
  9
$UCSORGBACK
 10
0.0
 20
0.0
 30
0.0
  9
$PUCSBASE
  2

  9
$PUCSNAME
  2

  9
$PUCSORG
 10
0.0
 20
0.0
 30
0.0
  9
$PUCSXDIR
 10
1.0
 20
0.0
 30
0.0
  9
$PUCSYDIR
 10
0.0
 20
1.0
 30
0.0
  9
$PUCSORTHOREF
  2

  9
$PUCSORTHOVIEW
 70
     0
  9
$PUCSORGTOP
 10
0.0
 20
0.0
 30
0.0
  9
$PUCSORGBOTTOM
 10
0.0
 20
0.0
 30
0.0
  9
$PUCSORGLEFT
 10
0.0
 20
0.0
 30
0.0
  9
$PUCSORGRIGHT
 10
0.0
 20
0.0
 30
0.0
  9
$PUCSORGFRONT
 10
0.0
 20
0.0
 30
0.0
  9
$PUCSORGBACK
 10
0.0
 20
0.0
 30
0.0
  9
$USERI1
 70
     0
  9
$USERI2
 70
     0
  9
$USERI3
 70
     0
  9
$USERI4
 70
     0
  9
$USERI5
 70
     0
  9
$USERR1
 40
0.0
  9
$USERR2
 40
0.0
  9
$USERR3
 40
0.0
  9
$USERR4
 40
0.0
  9
$USERR5
 40
2.5
  9
$WORLDVIEW
 70
     1
  9
$SHADEDGE
 70
     3
  9
$SHADEDIF
 70
    70
  9
$TILEMODE
 70
     1
  9
$MAXACTVP
 70
    64
  9
$PINSBASE
 10
0.0
 20
0.0
 30
0.0
  9
$PLIMCHECK
 70
     0
  9
$PEXTMIN
 10
1.000000000000000E+20
 20
1.000000000000000E+20
 30
1.000000000000000E+20
  9
$PEXTMAX
 10
-1.000000000000000E+20
 20
-1.000000000000000E+20
 30
-1.000000000000000E+20
  9
$PLIMMIN
 10
0.0
 20
0.0
  9
$PLIMMAX
 10
12.0
 20
9.0
  9
$UNITMODE
 70
     0
  9
$VISRETAIN
 70
     1
  9
$PLINEGEN
 70
     0
  9
$PSLTSCALE
 70
     1
  9
$TREEDEPTH
 70
  3020
  9
$CMLSTYLE
  2
Standard
  9
$CMLJUST
 70
     0
  9
$CMLSCALE
 40
1.0
  9
$PROXYGRAPHICS
 70
     1
  9
$MEASUREMENT
 70
     0
  9
$CELWEIGHT
370
    -1
  9
$ENDCAPS
280
     0
  9
$JOINSTYLE
280
     0
  9
$LWDISPLAY
290
     0
  9
$INSUNITS
 70
     0
  9
$HYPERLINKBASE
  1

  9
$STYLESHEET
  1

  9
$XEDIT
290
     1
  9
$CEPSNTYPE
380
     0
  9
$PSTYLEMODE
290
     1
  9
$FINGERPRINTGUID
  2
{E5D2C7B4-3E08-4E2E-A54C-53BA1A535308}
  9
$VERSIONGUID
  2
{D7FD847C-B72D-41FA-AEAB-F1ED246B0C28}
  9
$EXTNAMES
290
     1
  9
$PSVPSCALE
 40
0.0
  9
$OLESTARTUP
290
     0
  0
ENDSEC
  0
SECTION
  2
CLASSES
  0
CLASS
  1
ACDBDICTIONARYWDFLT
  2
AcDbDictionaryWithDefault
  3
ObjectDBX Classes
 90
        0
280
     0
281
     0
  0
CLASS
  1
MATERIAL
  2
AcDbMaterial
  3
ObjectDBX Classes
 90
     1153
280
     0
281
     0
  0
CLASS
  1
VISUALSTYLE
  2
AcDbVisualStyle
  3
ObjectDBX Classes
 90
     4095
280
     0
281
     0
  0
CLASS
  1
SCALE
  2
AcDbScale
  3
ObjectDBX Classes
 90
     1153
280
     0
281
     0
  0
CLASS
  1
TABLESTYLE
  2
AcDbTableStyle
  3
ObjectDBX Classes
 90
     4095
280
     0
281
     0
  0
CLASS
  1
MLEADERSTYLE
  2
AcDbMLeaderStyle
  3
ACDB_MLEADERSTYLE_CLASS
 90
     4095
280
     0
281
     0
  0
CLASS
  1
AMGSETTINGSOBJ
  2
AmgSettingsObj
  3
"AcadM|Product Description: AutoCAD Mechanical|Company: Autodesk, Inc."
 90
    33792
280
     0
281
     0
  0
CLASS
  1
ACME_DOCUMENT
  2
AcMeDbDoc
  3
AcMeServices
 90
    33792
280
     0
281
     0
  0
CLASS
  1
ACMESCOPE
  2
AcMeScope
  3
AcMeServices
 90
    33792
280
     0
281
     0
  0
CLASS
  1
ACMECOMMANDHISTORY
  2
AcMeCommandHistory
  3
AcMeServices
 90
    33792
280
     0
281
     0
  0
CLASS
  1
ACIMSYSVARMAN
  2
AcImSysVarManager
  3
AcMeServices
 90
    33792
280
     0
281
     0
  0
CLASS
  1
ACIMINTSYSVAR
  2
AcImIntSysVar
  3
AcMeServices
 90
    33792
280
     0
281
     0
  0
CLASS
  1
ACMEDRAWINGMAN
  2
AcMeDrawingMan
  3
AcMeServices
 90
    33792
280
     0
281
     0
  0
CLASS
  1
ACMEVIEW
  2
AcMeView
  3
AcMeServices
 90
    33792
280
     0
281
     0
  0
CLASS
  1
ACDBENTITYCACHE
  2
AcMeEntityCache
  3
AcMeServices
 90
    33792
280
     0
281
     0
  0
CLASS
  1
ACMESTATEMGR
  2
AcMeStateMgr
  3
AcMeServices
 90
    33792
280
     0
281
     0
  0
CLASS
  1
ACGREFMASTER
  2
AcGrefMaster
  3
AcAttribServices
 90
    33792
280
     0
281
     0
  0
CLASS
  1
AM_DRAWING_MGR
  2
AcDmDwgMgr
  3
AcMechDwgViewMgmt
 90
    33792
280
     0
281
     0
  0
CLASS
  1
AM_DWG_DOCUMENT
  2
AcDmDwgDocument
  3
AcMechDwgViewMgmt
 90
    33792
280
     0
281
     0
  0
CLASS
  1
AM_DWG_SHEET
  2
AcDmSheet
  3
AcMechDwgViewMgmt
 90
    33792
280
     0
281
     0
  0
CLASS
  1
AM_VIEWDIMPARMAP
  2
AcDmViewDimParMap
  3
AcMechDwgViewMgmt
 90
    33792
280
     0
281
     0
  0
CLASS
  1
AMDTINTERNALREACTOR
  2
AmdtInternalReactor
  3
AcMeServices
 90
    33792
280
     0
281
     0
  0
CLASS
  1
ACIMREALSYSVAR
  2
AcImRealSysVar
  3
AcMeServices
 90
    33792
280
     0
281
     0
  0
CLASS
  1
AM_DWGMGR_NAME
  2
AcDmDwgMgrName
  3
AcMechDwgViewMgmt
 90
    33792
280
     0
281
     0
  0
CLASS
  1
ACME_DATABASE
  2
AcMeDbDatabase
  3
AcMeServices
 90
    33792
280
     0
281
     0
  0
CLASS
  1
ACRFINSADJUSTERMGR
  2
AcRfInsAdjusterMgr
  3
AcMeServices
 90
    33792
280
     0
281
     0
  0
CLASS
  1
ACGREFACADMASTER
  2
AcGrefacadMaster
  3
AcGrefServices
 90
    33792
280
     0
281
     0
  0
CLASS
  1
AMDTMENUSTATEMGR
  2
AmdtMenuStateMgr
  3
McadcomServices
 90
    33792
280
     0
281
     0
  0
CLASS
  1
AMDTMCOMMENUSTATE
  2
AmdtMcomMenuState
  3
McadcomServices
 90
    33792
280
     0
281
     0
  0
CLASS
  1
AMIMASTER
  2
AmiMaster
  3
AmiServices
 90
    33792
280
     0
281
     0
  0
CLASS
  1
MAPIAMMOUDLE
  2
MApiAmModule
  3
MApiAmServices
 90
    33792
280
     0
281
     0
  0
CLASS
  1
ACIMSTRSYSVAR
  2
AcImStrSysVar
  3
AcMeServices
 90
    33792
280
     0
281
     0
  0
CLASS
  1
AMDTADMENUSTATE
  2
AmdtAdMenuState
  3
DesignerServices
 90
    33792
280
     0
281
     0
  0
CLASS
  1
ADAPPL
  2
AcAdAppl
  3
DesignerServices
 90
    33792
280
     0
281
     0
  0
CLASS
  1
DEPMGR
  2
AcAdDepMgr
  3
DesignerServices
 90
    33792
280
     0
281
     0
  0
CLASS
  1
PARAMMGR
  2
AcAdParamMgr
  3
DesignerServices
 90
    33792
280
     0
281
     0
  0
CLASS
  1
PARAMSCOPE
  2
AcAdParamScope
  3
DesignerServices
 90
    33792
280
     0
281
     0
  0
CLASS
  1
NAMEDAPPL
  2
AcAdNamedAppl
  3
DesignerServices
 90
    33792
280
     0
281
     0
  0
CLASS
  1
AMDTDMMENUSTATE
  2
AmdtDmMenuState
  3
AcMechDwgViewMgmt
 90
    33792
280
     0
281
     0
  0
CLASS
  1
AMDTAMMENUSTATE
  2
AmdtAmMenuState
  3
DesignerAssemblies
 90
    33792
280
     0
281
     0
  0
CLASS
  1
ACAMPROJECT
  2
AcAmProject
  3
DesignerAssemblies
 90
    33792
280
     0
281
     0
  0
CLASS
  1
ACAMGRCOMPDEF
  2
AcAmGrCompDef
  3
DesignerAssemblies
 90
    33792
280
     0
281
     0
  0
CLASS
  1
ACAMCOMPDEF
  2
AcAmCompDef
  3
DesignerAssemblies
 90
    33792
280
     0
281
     0
  0
CLASS
  1
ACAMCOMPDEFMGR
  2
AcAmCompDefMgr
  3
DesignerAssemblies
 90
    33792
280
     0
281
     0
  0
CLASS
  1
AMCONTEXTMGR
  2
AcAmContextMgr
  3
DesignerAssemblies
 90
    33792
280
     0
281
     0
  0
CLASS
  1
ACAMCONTEXTMODELER
  2
AcAmContextModeler
  3
DesignerAssemblies
 90
    33792
280
     0
281
     0
  0
CLASS
  1
ACMDATADICTIONARY
  2
AcmDataDictionary
  3
"AcmSymBB|Product Description: AutoCAD Mechanical|Company: Autodesk, Inc."
 90
    33792
280
     0
281
     0
  0
CLASS
  1
CATALOGSTATE
  2
AcAmCatalogState
  3
DesignerAssemblies
 90
    33792
280
     0
281
     0
  0
CLASS
  1
ACAMGRCOMPDEFSET
  2
AcAmGrCompDefSet
  3
DesignerAssemblies
 90
    33792
280
     0
281
     0
  0
CLASS
  1
AMDTBROWSERDBTAB
  2
AmdtBrowserDbTab
  3
McadcomServices
 90
    33792
280
     0
281
     0
  0
CLASS
  1
CBROWSERAPPOBJECT
  2
CBrowserAppObject
  3
McadcomServices
 90
    33792
280
     0
281
     0
  0
CLASS
  1
DM_PLACEHOLDER
  2
AcDmSelsetPlaceholder
  3
AcMechDwgViewMgmt
 90
    33792
280
     0
281
     0
  0
CLASS
  1
EXACXREFPANELOBJECT
  2
ExAcXREFPanelObject
  3
EXAC_ESW
 90
    33793
280
     0
281
     0
  0
CLASS
  1
NPOCOLLECTION
  2
AcDbImpNonPersistentObjectsCollection
  3
ObjectDBX Classes
 90
    33921
280
     0
281
     0
  0
CLASS
  1
ACMSTANDARDANSI
  2
AcmStandardANSI
  3
"Amdt_StdImp|Product Description: AutoCAD Mechanical|Company: Autodesk, Inc."
 90
    33792
280
     0
281
     0
  0
CLASS
  1
ACMSURFSTANDARDANSI
  2
AcmSurfTextStdANSI
  3
"Amdt_StdImp|Product Description: AutoCAD Mechanical|Company: Autodesk, Inc."
 90
    33792
280
     0
281
     0
  0
CLASS
  1
ACMFCFSTANDARDANSI
  2
AcmFCFStdANSI
  3
"Amdt_StdImp|Product Description: AutoCAD Mechanical|Company: Autodesk, Inc."
 90
    33792
280
     0
281
     0
  0
CLASS
  1
ACMWELDSTANDARDANSI
  2
AcmWeldingStdANSI
  3
"Amdt_StdImp|Product Description: AutoCAD Mechanical|Company: Autodesk, Inc."
 90
    33792
280
     0
281
     0
  0
CLASS
  1
ACMIDSTANDARDANSI
  2
AcmIdStdANSI
  3
"Amdt_StdImp|Product Description: AutoCAD Mechanical|Company: Autodesk, Inc."
 90
    33792
280
     0
281
     0
  0
CLASS
  1
ACMDATUMSTANDARDANSI
  2
AcmDatumStdANSI
  3
"Amdt_StdImp|Product Description: AutoCAD Mechanical|Company: Autodesk, Inc."
 90
    33792
280
     0
281
     0
  0
CLASS
  1
ACMBOMSTANDARDANSI
  2
AcmBOMStdANSI
  3
"Amdt_StdImp|Product Description: AutoCAD Mechanical|Company: Autodesk, Inc."
 90
    33792
280
     0
281
     0
  0
CLASS
  1
ACMDETAILSTANDARDANSI
  2
AmdtDetailSymStdANSI
  3
"Amdt_StdImp|Product Description: AutoCAD Mechanical|Company: Autodesk, Inc."
 90
    33792
280
     0
281
     0
  0
CLASS
  1
ACMSECTIONSTANDARDANSI
  2
AmdtSectionSymStdANSI
  3
"Amdt_StdImp|Product Description: AutoCAD Mechanical|Company: Autodesk, Inc."
 90
    33792
280
     0
281
     0
  0
CLASS
  1
ACMCENTERLINESTANDARDANSI
  2
AmdtCenterLineStdANSI
  3
"Amdt_StdImp|Product Description: AutoCAD Mechanical|Company: Autodesk, Inc."
 90
    33792
280
     0
281
     0
  0
CLASS
  1
ACMTHREADLINESTANDARDANSI
  2
AmdtThreadLineStdANSI
  3
"Amdt_StdImp|Product Description: AutoCAD Mechanical|Company: Autodesk, Inc."
 90
    33792
280
     0
281
     0
  0
CLASS
  1
ACMNOTESTANDARDANSI
  2
AmdtNoteStdANSI
  3
"Amdt_StdImp|Product Description: AutoCAD Mechanical|Company: Autodesk, Inc."
 90
    33792
280
     0
281
     0
  0
CLASS
  1
ACMTAPERSTANDARDANSI
  2
AcmTaperStdANSI
  3
"Amdt_StdImp|Product Description: AutoCAD Mechanical|Company: Autodesk, Inc."
 90
    33792
280
     0
281
     0
  0
CLASS
  1
ACMANOOTATIONVIEWSTANDARDANSI
  2
AmdtAnViewStdANSI
  3
"Amdt_StdImp|Product Description: AutoCAD Mechanical|Company: Autodesk, Inc."
 90
    33792
280
     0
281
     0
  0
CLASS
  1
ACAMGLAYSTD
  2
AcAmgLayStd
  3
"AmgLay|Product Description: AutoCAD Mechanical|Company: Autodesk, Inc."
 90
    33792
280
     0
281
     0
  0
CLASS
  1
ACAMGDIMSTD
  2
AcAmgDimStd
  3
"AmgDim|Product Description: AutoCAD Mechanical|Company: Autodesk, Inc."
 90
    33792
280
     0
281
     0
  0
CLASS
  1
ACAMGHOLECHARTSTDANSI
  2
AcAmgHoleChartStdANSI
  3
AmgDim|Product Description: AutoCAD Mechanical|Company: Autodesk, Inc.
 90
    33792
280
     0
281
     0
  0
CLASS
  1
AMGOBJPROPCFG
  2
AmgObjPropCfg
  3
"AmgLay|Product Description: AutoCAD Mechanical|Company: Autodesk, Inc."
 90
    33793
280
     0
281
     0
  0
CLASS
  1
ACAMGTITLESTD
  2
AcAmgTitleStd
  3
"AmgTitle|Product Description: AutoCAD Mechanical|Company: Autodesk, Inc."
 90
    36863
280
     0
281
     0
  0
CLASS
  1
AMDTNOTETEMPLATEDB
  2
AmdtNoteTemplateDB
  3
AcmSymBB|Product Description: AutoCAD Mechanical|Company: Autodesk, Inc.
 90
    33792
280
     0
281
     0
  0
CLASS
  1
VLO-VL
  2
vlo_VL
  3
VL|AutoLISP based application
 90
      129
280
     0
281
     0
  0
CLASS
  1
ACAMGFILTERDAT
  2
AcAmgFilterDat
  3
"AcadM|Product Description: AutoCAD Mechanical|Company: Autodesk, Inc."
 90
    33792
280
     0
281
     0
  0
CLASS
  1
DICTIONARYVAR
  2
AcDbDictionaryVar
  3
ObjectDBX Classes
 90
        0
280
     0
281
     0
  0
CLASS
  1
CELLSTYLEMAP
  2
AcDbCellStyleMap
  3
ObjectDBX Classes
 90
     1152
280
     0
281
     0
  0
CLASS
  1
SORTENTSTABLE
  2
AcDbSortentsTable
  3
ObjectDBX Classes
 90
        0
280
     0
281
     0
  0
CLASS
  1
AEC_REFEDIT_STATUS_TRACKER
  2
AecDbRefEditStatusTracker
  3
AecArchBase60|Product Desc: Autodesk Architectural Desktop 2007 |Company: Autodesk,Inc. |WEB Address: www.autodesk.com
 90
    32897
280
     0
281
     0
  0
CLASS
  1
ACDBPLACEHOLDER
  2
AcDbPlaceHolder
  3
ObjectDBX Classes
 90
        0
280
     0
281
     0
  0
CLASS
  1
LAYOUT
  2
AcDbLayout
  3
ObjectDBX Classes
 90
        0
280
     0
281
     0
  0
CLASS
  1
ACMSTANDARDISO
  2
AcmStandardISO
  3
"Amdt_StdImp|Product Description: AutoCAD Mechanical|Company: Autodesk, Inc."
 90
    33792
280
     0
281
     0
  0
CLASS
  1
AMDTEDGESTANDARDISO13715
  2
AmdtEdgeStdISO13715
  3
"Amdt_StdImp|Product Description: AutoCAD Mechanical|Company: Autodesk, Inc."
 90
    33792
280
     0
281
     0
  0
CLASS
  1
ACMSURFSTANDARDISO2002
  2
AcmSurfTextStdISO2002
  3
"Amdt_StdImp|Product Description: AutoCAD Mechanical|Company: Autodesk, Inc."
 90
    33792
280
     0
281
     0
  0
CLASS
  1
ACMFCFSTANDARDISO
  2
AcmFCFStdISO
  3
"Amdt_StdImp|Product Description: AutoCAD Mechanical|Company: Autodesk, Inc."
 90
    33792
280
     0
281
     0
  0
CLASS
  1
ACMWELDSTANDARDISO
  2
AcmWeldingStdISO
  3
"Amdt_StdImp|Product Description: AutoCAD Mechanical|Company: Autodesk, Inc."
 90
    33792
280
     0
281
     0
  0
CLASS
  1
ACMIDSTANDARDISO
  2
AcmIdStdISO
  3
"Amdt_StdImp|Product Description: AutoCAD Mechanical|Company: Autodesk, Inc."
 90
    33792
280
     0
281
     0
  0
CLASS
  1
ACMDATUMSTANDARDISO
  2
AcmDatumStdISO
  3
"Amdt_StdImp|Product Description: AutoCAD Mechanical|Company: Autodesk, Inc."
 90
    33792
280
     0
281
     0
  0
CLASS
  1
ACMBOMSTANDARDISO
  2
AcmBOMStdISO
  3
"Amdt_StdImp|Product Description: AutoCAD Mechanical|Company: Autodesk, Inc."
 90
    33792
280
     0
281
     0
  0
CLASS
  1
ACMDETAILSTANDARDISO
  2
AmdtDetailSymStdISO
  3
"Amdt_StdImp|Product Description: AutoCAD Mechanical|Company: Autodesk, Inc."
 90
    33792
280
     0
281
     0
  0
CLASS
  1
ACMSECTIONSTANDARDISO2001
  2
AmdtSectionSymStdISO2001
  3
"Amdt_StdImp|Product Description: AutoCAD Mechanical|Company: Autodesk, Inc."
 90
    33792
280
     0
281
     0
  0
CLASS
  1
ACMCENTERLINESTANDARDISO
  2
AmdtCenterLineStdISO
  3
"Amdt_StdImp|Product Description: AutoCAD Mechanical|Company: Autodesk, Inc."
 90
    33792
280
     0
281
     0
  0
CLASS
  1
ACMTHREADLINESTANDARDISO
  2
AmdtThreadLineStdISO
  3
"Amdt_StdImp|Product Description: AutoCAD Mechanical|Company: Autodesk, Inc."
 90
    33792
280
     0
281
     0
  0
CLASS
  1
ACMNOTESTANDARDISO
  2
AmdtNoteStdISO
  3
"Amdt_StdImp|Product Description: AutoCAD Mechanical|Company: Autodesk, Inc."
 90
    33792
280
     0
281
     0
  0
CLASS
  1
ACMTAPERSTANDARDISO
  2
AcmTaperStdISO
  3
"Amdt_StdImp|Product Description: AutoCAD Mechanical|Company: Autodesk, Inc."
 90
    33792
280
     0
281
     0
  0
CLASS
  1
ACMANOOTATIONVIEWSTANDARDISO
  2
AmdtAnViewStdISO
  3
"Amdt_StdImp|Product Description: AutoCAD Mechanical|Company: Autodesk, Inc."
 90
    33792
280
     0
281
     0
  0
CLASS
  1
ACAMGHOLECHARTSTDISO
  2
AcAmgHoleChartStdISO
  3
AmgDim|Product Description: AutoCAD Mechanical|Company: Autodesk, Inc.
 90
    33792
280
     0
281
     0
  0
ENDSEC
  0
SECTION
  2
TABLES
  0
TABLE
  2
VPORT
  5
42BF
330
0
100
AcDbSymbolTable
 70
     1
  0
VPORT
  5
4331
330
42BF
100
AcDbSymbolTableRecord
100
AcDbViewportTableRecord
  2
*ACTIVE
 70
     0
 10
0.0
 20
0.0
 11
1.0
 21
1.0
 12
709.0007963924976
 22
149.9009143738863
 13
0.0
 23
0.0
 14
0.5
 24
0.5
 15
0.5
 25
0.5
 16
0.0
 26
0.0
 36
1.0
 17
0.0
 27
0.0
 37
0.0
 40
93.19462890639819
 41
1.622972972972972
 42
50.0
 43
0.0
 44
0.0
 50
0.0
 51
0.0
 71
     0
 72
  1000
 73
     1
 74
     3
 75
     0
 76
     0
 77
     0
 78
     0
281
     0
 65
     0
110
0.0
120
0.0
130
0.0
111
1.0
121
0.0
131
0.0
112
0.0
122
1.0
132
0.0
 79
     0
146
0.0
  0
ENDTAB
  0
TABLE
  2
LTYPE
  5
42BC
330
0
100
AcDbSymbolTable
 70
    19
  0
LTYPE
  5
431C
330
42BC
100
AcDbSymbolTableRecord
100
AcDbLinetypeTableRecord
  2
ByBlock
 70
     0
  3

 72
    65
 73
     0
 40
0.0
  0
LTYPE
  5
431D
330
42BC
100
AcDbSymbolTableRecord
100
AcDbLinetypeTableRecord
  2
ByLayer
 70
     0
  3

 72
    65
 73
     0
 40
0.0
  0
LTYPE
  5
431E
330
42BC
100
AcDbSymbolTableRecord
100
AcDbLinetypeTableRecord
  2
CONTINUOUS
 70
     0
  3
Solid line
 72
    65
 73
     0
 40
0.0
  0
LTYPE
  5
4332
330
42BC
100
AcDbSymbolTableRecord
100
AcDbLinetypeTableRecord
  2
CENTER2
 70
     0
  3
Center (.5x) ___ _ ___ _ ___ _ ___ _ ___ _ ___
 72
    65
 73
     4
 40
28.575
 49
19.05
 74
     0
 49
-3.174999999999998
 74
     0
 49
3.174999999999998
 74
     0
 49
-3.174999999999998
 74
     0
  0
LTYPE
  5
4333
330
42BC
100
AcDbSymbolTableRecord
100
AcDbLinetypeTableRecord
  2
HIDDEN2
 70
     0
  3
Hidden (.5x) _ _ _ _ _ _ _ _ _ _ _ _ _ _ _ _ _
 72
    65
 73
     2
 40
4.762499999999998
 49
3.174999999999998
 74
     0
 49
-1.587499999999999
 74
     0
  0
LTYPE
  5
4334
330
42BC
100
AcDbSymbolTableRecord
100
AcDbLinetypeTableRecord
  2
CENTER
 70
     0
  3
____ _ ____ _ ____ _ ____ _ ____ _ ____ _ ____
 72
    65
 73
     4
 40
0.6
 49
0.375
 74
     0
 49
-0.075
 74
     0
 49
0.075
 74
     0
 49
-0.075
 74
     0
  0
LTYPE
  5
4335
330
42BC
100
AcDbSymbolTableRecord
100
AcDbLinetypeTableRecord
  2
HIDDEN
 70
     0
  3
Hidden __ __ __ __ __ __ __ __ __ __ __ __ __ __
 72
    65
 73
     2
 40
0.375
 49
0.25
 74
     0
 49
-0.125
 74
     0
  0
LTYPE
  5
4336
330
42BC
100
AcDbSymbolTableRecord
100
AcDbLinetypeTableRecord
  2
PHANTOM2
 70
     0
  3
Phantom (.5x) ___ _ _ ___ _ _ ___ _ _ ___ _ _
 72
    65
 73
     6
 40
1.25
 49
0.625
 74
     0
 49
-0.125
 74
     0
 49
0.125
 74
     0
 49
-0.125
 74
     0
 49
0.125
 74
     0
 49
-0.125
 74
     0
  0
LTYPE
  5
433A
330
42BC
100
AcDbSymbolTableRecord
100
AcDbLinetypeTableRecord
  2
AMCONSTR
 70
     0
  3
_______________________
 72
    65
 73
     2
 40
9999.0
 49
9999.0
 74
     0
 49
0.0
 74
     0
  0
LTYPE
  5
433E
330
42BC
100
AcDbSymbolTableRecord
100
AcDbLinetypeTableRecord
  2
AMZIGZAG2
 70
     0
  3
/\/-/\/-/\/-/\/-/\/-/\/
 72
    65
 73
     2
 40
0.4401
 49
0.0001
 74
     0
 49
-0.4400000000000003
 74
     0
  0
LTYPE
  5
433F
330
42BC
100
AcDbSymbolTableRecord
100
AcDbLinetypeTableRecord
  2
ACANSTGB
 70
     0
  3
__ . . __ . .
 72
    65
 73
     6
 40
0.35433070866
 49
0.15748031496
 74
     0
 49
-0.03937007874
 74
     0
 49
0.03937007874
 74
     0
 49
-0.03937007874
 74
     0
 49
0.03937007874
 74
     0
 49
-0.03937007874
 74
     0
  0
LTYPE
  5
4340
330
42BC
100
AcDbSymbolTableRecord
100
AcDbLinetypeTableRecord
  2
ACANSTGL
 70
     0
  3
_ _ _ _ _
 72
    65
 73
     2
 40
0.11811023622
 49
0.07874015748
 74
     0
 49
-0.03937007874
 74
     0
  0
LTYPE
  5
4AA4
330
42BC
100
AcDbSymbolTableRecord
100
AcDbLinetypeTableRecord
  2
AM_ISO02W050
 70
     0
  3
__ __ __ __ __ __ __ __ __ __ __ __ __ __ __
 72
    65
 73
     2
 40
7.5
 49
6.0
 74
     0
 49
-1.5
 74
     0
  0
LTYPE
  5
4AA5
330
42BC
100
AcDbSymbolTableRecord
100
AcDbLinetypeTableRecord
  2
AM_ISO08W050
 70
     0
  3
____ . ____ . ____ . ____ . ____ . ____ . ____
 72
    65
 73
     4
 40
18.0
 49
12.0
 74
     0
 49
-1.5
 74
     0
 49
3.0
 74
     0
 49
-1.5
 74
     0
  0
LTYPE
  5
4AA6
330
42BC
100
AcDbSymbolTableRecord
100
AcDbLinetypeTableRecord
  2
AM_ISO09W050
 70
     0
  3
_____ . . _____ . . _____ . . ____ .. ____
 72
    65
 73
     6
 40
22.5
 49
12.0
 74
     0
 49
-1.5
 74
     0
 49
3.0
 74
     0
 49
-1.5
 74
     0
 49
3.0
 74
     0
 49
-1.5
 74
     0
  0
LTYPE
  5
4AA7
330
42BC
100
AcDbSymbolTableRecord
100
AcDbLinetypeTableRecord
  2
AM_ISO08W050x2
 70
     0
  3
__ . __ . __ . __ . __ . __
 72
    65
 73
     4
 40
9.0
 49
6.0
 74
     0
 49
-0.75
 74
     0
 49
1.5
 74
     0
 49
-0.75
 74
     0
  0
LTYPE
  5
4AA8
330
42BC
100
AcDbSymbolTableRecord
100
AcDbLinetypeTableRecord
  2
AM_ISO02W050x2
 70
     0
  3
 _ _ _ _ _ _ _ _ _ _ _ _
 72
    65
 73
     2
 40
3.75
 49
3.0
 74
     0
 49
-0.75
 74
     0
  0
LTYPE
  5
4AAB
330
42BC
100
AcDbSymbolTableRecord
100
AcDbLinetypeTableRecord
  2
Amzigzag
 70
     0
  3
/\/-/\/-/\/-/\/-/\/-/\/
 72
    65
 73
     2
 40
11.0001
 49
0.0001
 74
     4
 75
   136
340
4AAA
 46
0.04
 50
0.0
 44
0.0
 45
0.0
 49
-11.0
 74
     0
  0
LTYPE
  5
4DCE
330
42BC
100
AcDbSymbolTableRecord
100
AcDbLinetypeTableRecord
  2
ACISOWELD
 70
     0
  3
_ _ _ _ _
 72
    65
 73
     2
 40
2.0
 49
2.0
 74
     0
 49
-1.0
 74
     0
  0
LTYPE
  5
4DCF
330
42BC
100
AcDbSymbolTableRecord
100
AcDbLinetypeTableRecord
  2
ACISOTGB
 70
     0
  3
__ . . __ . .
 72
    65
 73
     6
 40
9.0
 49
4.0
 74
     0
 49
-1.0
 74
     0
 49
1.0
 74
     0
 49
-1.0
 74
     0
 49
1.0
 74
     0
 49
-1.0
 74
     0
  0
LTYPE
  5
4DD0
330
42BC
100
AcDbSymbolTableRecord
100
AcDbLinetypeTableRecord
  2
ACISOTGL
 70
     0
  3
_ _ _ _ _
 72
    65
 73
     2
 40
3.0
 49
2.0
 74
     0
 49
-1.0
 74
     0
  0
ENDTAB
  0
TABLE
  2
LAYER
  5
42B9
102
{ACAD_XDICTIONARY
360
46A5
102
}
330
0
100
AcDbSymbolTable
 70
     8
  0
LAYER
  5
4316
102
{ACAD_XDICTIONARY
360
44F0
102
}
330
42B9
100
AcDbSymbolTableRecord
100
AcDbLayerTableRecord
  2
0
 70
     0
 62
     7
  6
CONTINUOUS
370
    20
390
42C6
  0
LAYER
  5
4341
102
{ACAD_XDICTIONARY
360
44F2
102
}
330
42B9
100
AcDbSymbolTableRecord
100
AcDbLayerTableRecord
  2
中心线
 70
     0
 62
     1
  6
CENTER2
370
    13
390
42C6
  0
LAYER
  5
4342
102
{ACAD_XDICTIONARY
360
44F4
102
}
330
42B9
100
AcDbSymbolTableRecord
100
AcDbLayerTableRecord
  2
虚线
 70
     0
 62
     4
  6
HIDDEN2
370
    13
390
42C6
  0
LAYER
  5
4343
330
42B9
100
AcDbSymbolTableRecord
100
AcDbLayerTableRecord
  2
DEFPOINTS
 70
     0
 62
     7
  6
CONTINUOUS
290
     0
370
    -3
390
42C6
  0
LAYER
  5
4344
102
{ACAD_XDICTIONARY
360
44F6
102
}
330
42B9
100
AcDbSymbolTableRecord
100
AcDbLayerTableRecord
  2
标注
 70
     0
 62
    80
  6
CONTINUOUS
370
    13
390
42C6
  0
LAYER
  5
4345
102
{ACAD_XDICTIONARY
360
44F8
102
}
330
42B9
100
AcDbSymbolTableRecord
100
AcDbLayerTableRecord
  2
截面层
 70
     0
 62
     6
  6
CONTINUOUS
370
    20
390
42C6
  0
LAYER
  5
4347
102
{ACAD_XDICTIONARY
360
44FA
102
}
330
42B9
100
AcDbSymbolTableRecord
100
AcDbLayerTableRecord
  2
细实线
 70
     0
 62
     7
  6
CONTINUOUS
370
    15
390
42C6
  0
LAYER
  5
5369
102
{ACAD_XDICTIONARY
360
536A
102
}
330
42B9
100
AcDbSymbolTableRecord
100
AcDbLayerTableRecord
  2
剖面线
 70
     0
 62
   200
  6
CONTINUOUS
370
    20
390
42C6
  0
ENDTAB
  0
TABLE
  2
STYLE
  5
42BA
330
0
100
AcDbSymbolTable
 70
     6
  0
STYLE
  5
4317
330
42BA
100
AcDbSymbolTableRecord
100
AcDbTextStyleTableRecord
  2
STANDARD
 70
     0
 40
0.0
 41
1.0
 50
0.0
 71
     0
 42
0.2
  3
SimSun.ttf
  4

1001
ACAD
1000
SimSun
1071
    34306
  0
STYLE
  5
434B
330
42BA
100
AcDbSymbolTableRecord
100
AcDbTextStyleTableRecord
  2
ACANSGDT
 70
     0
 40
0.0
 41
1.0
 50
0.0
 71
     0
 42
0.2
  3
amgdt.shx
  4

  0
STYLE
  5
469E
330
42BA
100
AcDbSymbolTableRecord
100
AcDbTextStyleTableRecord
  2
Roman
 70
     0
 40
0.0
 41
1.0
 50
0.0
 71
     0
 42
0.065
  3
arial_4.ttf
  4

1001
ACAD
1000
Arial
1071
       34
  0
STYLE
  5
4AAA
330
42BA
100
AcDbSymbolTableRecord
100
AcDbTextStyleTableRecord
  2

 70
     1
 40
0.0
 41
1.0
 50
0.0
 71
     0
 42
0.2
  3
genltshp.shx
  4

  0
STYLE
  5
4AAD
330
42BA
100
AcDbSymbolTableRecord
100
AcDbTextStyleTableRecord
  2
ACANSTS
 70
     0
 40
1.0
 41
1.0
 50
0.0
 71
     0
 42
0.2
  3
romans.shx
  4
gbcbig.shx
  0
STYLE
  5
4DD1
330
42BA
100
AcDbSymbolTableRecord
100
AcDbTextStyleTableRecord
  2
ACISOGDT
 70
     0
 40
0.0
 41
1.0
 50
0.0
 71
     0
 42
2.5
  3
amgdt.shx
  4

  0
ENDTAB
  0
TABLE
  2
VIEW
  5
42BD
330
0
100
AcDbSymbolTable
 70
     0
  0
ENDTAB
  0
TABLE
  2
UCS
  5
42BE
330
0
100
AcDbSymbolTable
 70
     0
  0
ENDTAB
  0
TABLE
  2
APPID
  5
42C0
330
0
100
AcDbSymbolTable
 70
    31
  0
APPID
  5
4318
330
42C0
100
AcDbSymbolTableRecord
100
AcDbRegAppTableRecord
  2
ACAD
 70
     0
  0
APPID
  5
431F
330
42C0
100
AcDbSymbolTableRecord
100
AcDbRegAppTableRecord
  2
ACADANNOTATIVE
 70
     0
  0
APPID
  5
434C
330
42C0
100
AcDbSymbolTableRecord
100
AcDbRegAppTableRecord
  2
ACAECLAYERSTANDARD
 70
     0
  0
APPID
  5
434D
330
42C0
100
AcDbSymbolTableRecord
100
AcDbRegAppTableRecord
  2
ACAD_DSTYLE_DIMEXT_LENGTH
 70
     0
  0
APPID
  5
434E
330
42C0
100
AcDbSymbolTableRecord
100
AcDbRegAppTableRecord
  2
ACAD_DSTYLE_DIMEXT_ENABLED
 70
     0
  0
APPID
  5
434F
330
42C0
100
AcDbSymbolTableRecord
100
AcDbRegAppTableRecord
  2
ACAD_DSTYLE_DIMJOGGED_JOGA
 70
     0
  0
APPID
  5
4350
330
42C0
100
AcDbSymbolTableRecord
100
AcDbRegAppTableRecord
  2
ACAD_DSTYLE_DIMARC_LENGTH_
 70
     0
  0
APPID
  5
4351
330
42C0
100
AcDbSymbolTableRecord
100
AcDbRegAppTableRecord
  2
ACAD_PSEXT
 70
     0
  0
APPID
  5
4352
330
42C0
100
AcDbSymbolTableRecord
100
AcDbRegAppTableRecord
  2
ACAD_DSTYLE_DIMJAG
 70
     0
  0
APPID
  5
4353
330
42C0
100
AcDbSymbolTableRecord
100
AcDbRegAppTableRecord
  2
ACAD_DSTYLE_DIMTALN
 70
     0
  0
APPID
  5
4354
330
42C0
100
AcDbSymbolTableRecord
100
AcDbRegAppTableRecord
  2
ACAD_MLEADERVER
 70
     0
  0
APPID
  5
4355
330
42C0
100
AcDbSymbolTableRecord
100
AcDbRegAppTableRecord
  2
ACAD_DSTYLE_DIMRADIAL_EXTENSION
 70
     0
  0
APPID
  5
4356
330
42C0
100
AcDbSymbolTableRecord
100
AcDbRegAppTableRecord
  2
ACAD_EXEMPT_FROM_CAD_STANDARDS
 70
     0
  0
APPID
  5
4357
330
42C0
100
AcDbSymbolTableRecord
100
AcDbRegAppTableRecord
  2
MCAD_NO_VIS
 70
     0
  0
APPID
  5
4358
330
42C0
100
AcDbSymbolTableRecord
100
AcDbRegAppTableRecord
  2
ACAD_TEMP_GRAPHIC
 70
     0
  0
APPID
  5
4359
330
42C0
100
AcDbSymbolTableRecord
100
AcDbRegAppTableRecord
  2
AD_DRAW
 70
     0
  0
APPID
  5
435A
330
42C0
100
AcDbSymbolTableRecord
100
AcDbRegAppTableRecord
  2
ACATTRIBSERVICES
 70
     0
  0
APPID
  5
435B
330
42C0
100
AcDbSymbolTableRecord
100
AcDbRegAppTableRecord
  2
DESIGNERASSEMBLIES
 70
     0
  0
APPID
  5
435C
330
42C0
100
AcDbSymbolTableRecord
100
AcDbRegAppTableRecord
  2
ACADM_DIM_EDIT
 70
     0
  0
APPID
  5
435D
330
42C0
100
AcDbSymbolTableRecord
100
AcDbRegAppTableRecord
  2
AMDT_DM_ADJ
 70
     0
  0
APPID
  5
435E
330
42C0
100
AcDbSymbolTableRecord
100
AcDbRegAppTableRecord
  2
ACAD_DSTYLE_DIMBREAK
 70
     0
  0
APPID
  5
435F
330
42C0
100
AcDbSymbolTableRecord
100
AcDbRegAppTableRecord
  2
ACAD_DSTYLE_DIMINSPECT
 70
     0
  0
APPID
  5
4360
330
42C0
100
AcDbSymbolTableRecord
100
AcDbRegAppTableRecord
  2
GENIUS_GENODEF_13
 70
     0
  0
APPID
  5
4361
330
42C0
100
AcDbSymbolTableRecord
100
AcDbRegAppTableRecord
  2
GENIUS_GENOBJ-N-FIL_13
 70
     0
  0
APPID
  5
4537
330
42C0
100
AcDbSymbolTableRecord
100
AcDbRegAppTableRecord
  2
AcadAnnoPO
 70
     0
  0
APPID
  5
46A4
330
42C0
100
AcDbSymbolTableRecord
100
AcDbRegAppTableRecord
  2
ACAD_DSTYLE_DIMJOGGED_JOGANGLE_SYMBOL
 70
     0
  0
APPID
  5
4A30
330
42C0
100
AcDbSymbolTableRecord
100
AcDbRegAppTableRecord
  2
ACAD_DSTYLE_DIM_LINETYPE
 70
     0
  0
APPID
  5
4A31
330
42C0
100
AcDbSymbolTableRecord
100
AcDbRegAppTableRecord
  2
ACAD_DSTYLE_DIM_EXT1_LINETYPE
 70
     0
  0
APPID
  5
4A32
330
42C0
100
AcDbSymbolTableRecord
100
AcDbRegAppTableRecord
  2
ACAD_DSTYLE_DIM_EXT2_LINETYPE
 70
     0
  0
APPID
  5
4DDD
330
42C0
100
AcDbSymbolTableRecord
100
AcDbRegAppTableRecord
  2
AcDbBlockRepETag
 70
     0
  0
APPID
  5
52AD
330
42C0
100
AcDbSymbolTableRecord
100
AcDbRegAppTableRecord
  2
ACAD_DSTYLE_DIMARC_LENGTH_SYMBOL
 70
     0
  0
ENDTAB
  0
TABLE
  2
DIMSTYLE
  5
42C1
330
0
100
AcDbSymbolTable
 70
    24
100
AcDbDimStyleTable
 71
     2
340
4364
340
4319
  0
DIMSTYLE
105
4319
330
42C1
100
AcDbSymbolTableRecord
100
AcDbDimStyleTableRecord
  2
STANDARD
 70
     0
274
     1
279
     2
284
     8
285
     8
286
     8
340
4317
  0
DIMSTYLE
105
4364
102
{ACAD_REACTORS
330
5528
330
5536
330
5544
330
5552
330
55A8
102
}
330
42C1
100
AcDbSymbolTableRecord
100
AcDbDimStyleTableRecord
  2
副本STANDARD
 70
     0
  3
"
  4
"
 41
0.65
 42
0.88
 43
0.015
 44
0.32
 73
     0
 74
     0
 78
     8
140
0.65
143
0.03937
147
0.2
171
     1
172
     1
176
     3
177
     3
178
     3
271
     3
272
     3
274
     1
276
     2
277
     5
279
     2
284
     8
285
     8
286
     8
340
4317
371
    13
372
    13
1001
ACAD_DSTYLE_DIMJAG
1070
   388
1040
1.5
1001
ACAD_DSTYLE_DIMTALN
1070
   392
1070
     0
1001
ACAD_DSTYLE_DIM_LINETYPE
1070
   380
1005
431E
1001
ACAD_DSTYLE_DIM_EXT1_LINETYPE
1070
   381
1005
431E
1001
ACAD_DSTYLE_DIM_EXT2_LINETYPE
1070
   382
1005
431E
  0
DIMSTYLE
105
4365
330
42C1
100
AcDbSymbolTableRecord
100
AcDbDimStyleTableRecord
  2
AM_ANSI
 70
     0
  4
mm
 41
0.12
 42
0.05
 43
0.5
 44
0.1
 47
0.1
 48
0.1
 78
     7
140
0.12
141
0.0
146
0.71
147
0.06
176
   256
177
   256
178
     2
274
     1
279
     2
284
     8
285
     8
286
     8
340
4317
  0
DIMSTYLE
105
4366
330
42C1
100
AcDbSymbolTableRecord
100
AcDbDimStyleTableRecord
  2
AM_ANSI$3
 70
     0
  4
mm
 41
0.12
 42
0.05
 43
0.5
 44
0.1
 47
0.1
 48
0.1
 78
     7
140
0.12
141
0.0
146
0.71
147
0.06
176
   256
177
   256
178
     2
274
     1
279
     2
284
     8
285
     8
286
     8
340
4317
  0
DIMSTYLE
105
4367
330
42C1
100
AcDbSymbolTableRecord
100
AcDbDimStyleTableRecord
  2
AM_ANSI$4
 70
     0
  4
mm
 41
0.12
 42
0.05
 43
0.5
 44
0.1
 47
0.1
 48
0.1
 78
     7
140
0.12
141
0.0
146
0.71
147
0.06
176
   256
177
   256
178
     2
274
     1
279
     2
284
     8
285
     8
286
     8
340
4317
  0
DIMSTYLE
105
4368
330
42C1
100
AcDbSymbolTableRecord
100
AcDbDimStyleTableRecord
  2
AM_ANSI$7
 70
     0
  4
mm
 41
0.12
 42
0.05
 43
0.5
 44
0.1
 47
0.1
 48
0.1
 78
     7
140
0.12
141
0.0
146
0.71
147
0.06
176
   256
177
   256
178
     2
274
     1
279
     2
284
     8
285
     8
286
     8
340
4317
  0
DIMSTYLE
105
4369
330
42C1
100
AcDbSymbolTableRecord
100
AcDbDimStyleTableRecord
  2
AM_ANSI$SF
 70
     0
  4
mm
 41
0.12
 42
0.05
 43
0.5
 44
0.1
 47
0.1
 48
0.1
 75
     1
 76
     1
 78
     7
140
0.12
141
0.0
146
0.71
147
0.06
176
   256
177
   256
178
     2
274
     1
279
     2
284
     8
285
     8
286
     8
340
4317
  0
DIMSTYLE
105
436A
330
42C1
100
AcDbSymbolTableRecord
100
AcDbDimStyleTableRecord
  2
AM_ANSI$SH
 70
     0
  4
mm
 41
0.12
 42
0.05
 43
0.5
 44
0.1
 47
0.1
 48
0.1
 75
     1
 76
     1
 78
     7
140
0.12
141
0.0
146
0.71
147
0.06
173
     1
176
   256
177
   256
178
     2
274
     1
279
     2
284
     8
285
     8
286
     8
340
4317
  0
DIMSTYLE
105
4B21
330
42C1
100
AcDbSymbolTableRecord
100
AcDbDimStyleTableRecord
  2
副本Standard2
 70
     0
  4
"
 41
14.0
 42
22.0
 44
8.0
 73
     0
 74
     0
 78
     8
 79
     2
140
14.0
143
0.03937
147
5.0
170
     1
171
     3
172
     1
176
   256
177
   256
178
   256
179
     1
271
     1
272
     1
273
     7
274
     3
278
    44
340
4317
1001
ACAD_DSTYLE_DIMBREAK
1070
   391
1040
0.125
1001
ACAD_DSTYLE_DIMJAG
1070
   388
1040
1.5
1001
ACAD_DSTYLE_DIMTALN
1070
   392
1070
     0
  0
DIMSTYLE
105
4B22
330
42C1
100
AcDbSymbolTableRecord
100
AcDbDimStyleTableRecord
  2
毫米英寸
 70
     0
  3
mm
  4
"
 41
16.0
 42
8.0
 43
3.75
 44
1.25
 73
     0
 74
     0
 77
     1
 78
     8
140
18.0
141
15.0
143
0.03937007874016
147
3.0
170
     1
171
     3
172
     1
176
     3
177
     3
178
     3
271
     0
272
     0
273
     7
274
     3
276
     2
278
    44
283
     0
284
     8
340
4317
371
     5
372
     5
1001
ACAD_DSTYLE_DIMBREAK
1070
   391
1040
0.125
1001
ACAD_DSTYLE_DIMJAG
1070
   388
1040
1.5
1001
ACAD_DSTYLE_DIMTALN
1070
   392
1070
     0
1001
ACAD_DSTYLE_DIMEXT_LENGTH
1070
   378
1040
1.25
1001
ACAD_DSTYLE_DIM_LINETYPE
1070
   380
1005
431E
1001
ACAD_DSTYLE_DIM_EXT1_LINETYPE
1070
   381
1005
431E
1001
ACAD_DSTYLE_DIM_EXT2_LINETYPE
1070
   382
1005
431E
  0
DIMSTYLE
105
4DD2
330
42C1
100
AcDbSymbolTableRecord
100
AcDbDimStyleTableRecord
  2
ISO-25
 70
     0
 41
15.0
 42
0.0
 43
3.75
 44
1.25
 73
     0
 74
     0
 78
     8
140
18.0
141
2.5
143
0.03937007874016
147
3.0
171
     4
172
     1
176
     3
177
     3
178
     3
271
     1
272
     1
273
     7
274
     4
278
    44
283
     0
284
     8
340
469E
371
    13
372
    13
1001
ACAD_DSTYLE_DIMJAG
1070
   388
1040
1.5
1001
ACAD_DSTYLE_DIMTALN
1070
   392
1070
     0
1001
ACAD_DSTYLE_DIMEXT_LENGTH
1070
   378
1040
1.25
1001
ACAD_DSTYLE_DIMJOGGED_JOGANGLE_SYMBOL
1070
   384
1040
1.570796326794896
1001
ACAD_DSTYLE_DIM_LINETYPE
1070
   380
1005
431E
1001
ACAD_DSTYLE_DIM_EXT1_LINETYPE
1070
   381
1005
431E
1001
ACAD_DSTYLE_DIM_EXT2_LINETYPE
1070
   382
1005
431E
  0
DIMSTYLE
105
4DD3
330
42C1
100
AcDbSymbolTableRecord
100
AcDbDimStyleTableRecord
  2
01
 70
     0
 41
10.0
 42
0.625
 43
3.75
 44
1.25
 73
     0
 74
     0
 77
     1
 78
     8
140
15.0
141
2.5
143
0.03937007874016
147
3.0
171
     3
172
     1
176
     6
177
     6
271
     2
272
     2
274
     3
278
    44
283
     0
284
     8
340
4317
371
     5
372
     5
1001
ACAD_DSTYLE_DIMEXT_LENGTH
1070
   378
1040
1.25
1001
ACAD_DSTYLE_DIMJOGGED_JOGANGLE_SYMBOL
1070
   384
1040
1.570796326794896
  0
DIMSTYLE
105
4DD4
330
42C1
100
AcDbSymbolTableRecord
100
AcDbDimStyleTableRecord
  2
副本01
 70
     0
 41
10.0
 42
2.0
 43
3.75
 44
2.0
 73
     0
 77
     1
 78
     9
140
15.0
141
0.5
143
0.03937007874
147
-3.0
172
     1
176
     6
177
     6
178
   256
271
     0
272
     0
283
     0
284
     8
285
    12
340
4317
371
     5
372
     5
1001
ACAD_DSTYLE_DIMEXT_LENGTH
1070
   378
1040
1.25
1001
ACAD_DSTYLE_DIMJOGGED_JOGANGLE_SYMBOL
1070
   384
1040
1.570796326794896
  0
DIMSTYLE
105
4DD5
330
42C1
100
AcDbSymbolTableRecord
100
AcDbDimStyleTableRecord
  2
AM_ISO
 70
     0
  4
"
 41
3.5
 42
1.0
 43
10.0
 44
1.0
 47
0.1
 48
0.1
 73
     0
 74
     0
 77
     1
 78
     8
 79
     2
140
3.5
141
0.0
143
0.0393701
146
0.71
147
1.5
172
     1
176
   256
177
   256
178
     2
271
     2
272
     3
274
     4
283
     0
284
     8
340
4317
371
    -1
372
    -1
1001
ACAD_DSTYLE_DIMJAG
1070
   388
1040
1.5
1001
ACAD_DSTYLE_DIMBREAK
1070
   391
1040
3.75
1001
ACAD_DSTYLE_DIMARC_LENGTH_SYMBOL
1070
   379
1070
     1
1001
ACAD_DSTYLE_DIM_LINETYPE
1070
   380
1005
431C
1001
ACAD_DSTYLE_DIM_EXT1_LINETYPE
1070
   381
1005
431C
1001
ACAD_DSTYLE_DIM_EXT2_LINETYPE
1070
   382
1005
431C
  0
DIMSTYLE
105
4DD6
330
42C1
100
AcDbSymbolTableRecord
100
AcDbDimStyleTableRecord
  2
AM_ISO$3
 70
     0
  4
"
 41
3.5
 42
1.0
 43
10.0
 44
1.0
 47
0.1
 48
0.1
 73
     0
 77
     1
 78
     8
 79
     2
140
3.5
141
0.0
143
0.0393701
146
0.71
147
1.5
176
   256
177
   256
178
     2
271
     2
272
     3
274
     4
283
     0
284
     8
288
     1
289
     0
340
4317
371
    -1
372
    -1
1001
ACAD_DSTYLE_DIMBREAK
1070
   391
1040
3.75
1001
ACAD_DSTYLE_DIMJAG
1070
   388
1040
1.5
1001
ACAD_DSTYLE_DIMARC_LENGTH_SYMBOL
1070
   379
1070
     1
1001
ACAD_DSTYLE_DIM_LINETYPE
1070
   380
1005
431C
1001
ACAD_DSTYLE_DIM_EXT1_LINETYPE
1070
   381
1005
431C
1001
ACAD_DSTYLE_DIM_EXT2_LINETYPE
1070
   382
1005
431C
  0
DIMSTYLE
105
4DD7
330
42C1
100
AcDbSymbolTableRecord
100
AcDbDimStyleTableRecord
  2
AM_ISO$4
 70
     0
  4
"
 41
3.5
 42
1.0
 43
10.0
 44
1.0
 47
0.1
 48
0.1
 73
     0
 77
     1
 78
     8
 79
     2
140
3.5
141
0.0
143
0.0393701
146
0.71
147
1.5
176
   256
177
   256
178
     2
271
     2
272
     3
274
     4
283
     0
284
     8
288
     1
289
     0
340
4317
371
    -1
372
    -1
1001
ACAD_DSTYLE_DIMBREAK
1070
   391
1040
3.75
1001
ACAD_DSTYLE_DIMJAG
1070
   388
1040
1.5
1001
ACAD_DSTYLE_DIMARC_LENGTH_SYMBOL
1070
   379
1070
     1
1001
ACAD_DSTYLE_DIM_LINETYPE
1070
   380
1005
431C
1001
ACAD_DSTYLE_DIM_EXT1_LINETYPE
1070
   381
1005
431C
1001
ACAD_DSTYLE_DIM_EXT2_LINETYPE
1070
   382
1005
431C
  0
DIMSTYLE
105
4DD8
330
42C1
100
AcDbSymbolTableRecord
100
AcDbDimStyleTableRecord
  2
AM_ISO$6
 70
     0
  4
"
 41
3.5
 42
1.0
 43
10.0
 44
1.0
 47
0.1
 48
0.1
 73
     0
 74
     0
 78
     8
 79
     2
140
3.5
141
0.0
143
0.0393701
146
0.71
147
1.5
172
     1
176
   256
177
   256
178
     2
271
     2
272
     3
274
     4
283
     0
284
     8
340
4317
371
    -1
372
    -1
1001
ACAD_DSTYLE_DIMBREAK
1070
   391
1040
3.75
1001
ACAD_DSTYLE_DIMJAG
1070
   388
1040
1.5
1001
ACAD_DSTYLE_DIMARC_LENGTH_SYMBOL
1070
   379
1070
     1
1001
ACAD_DSTYLE_DIM_LINETYPE
1070
   380
1005
431C
1001
ACAD_DSTYLE_DIM_EXT1_LINETYPE
1070
   381
1005
431C
1001
ACAD_DSTYLE_DIM_EXT2_LINETYPE
1070
   382
1005
431C
  0
DIMSTYLE
105
4DD9
330
42C1
100
AcDbSymbolTableRecord
100
AcDbDimStyleTableRecord
  2
AM_ISO$7
 70
     0
  4
"
 41
3.5
 42
1.0
 43
10.0
 44
1.0
 47
0.1
 48
0.1
 73
     0
 74
     0
 77
     1
 78
     8
 79
     2
140
3.5
141
0.0
143
0.0393701
146
0.71
147
1.5
172
     1
176
   256
177
   256
178
     2
271
     2
272
     3
274
     4
283
     0
284
     8
340
4317
371
    -1
372
    -1
1001
ACAD_DSTYLE_DIMBREAK
1070
   391
1040
3.75
1001
ACAD_DSTYLE_DIMJAG
1070
   388
1040
1.5
1001
ACAD_DSTYLE_DIMARC_LENGTH_SYMBOL
1070
   379
1070
     1
1001
ACAD_DSTYLE_DIM_LINETYPE
1070
   380
1005
431C
1001
ACAD_DSTYLE_DIM_EXT1_LINETYPE
1070
   381
1005
431C
1001
ACAD_DSTYLE_DIM_EXT2_LINETYPE
1070
   382
1005
431C
  0
DIMSTYLE
105
4DDA
330
42C1
100
AcDbSymbolTableRecord
100
AcDbDimStyleTableRecord
  2
AM_ISO$SF
 70
     0
  4
"
 41
3.5
 42
1.0
 43
10.0
 44
1.0
 47
0.1
 48
0.1
 73
     0
 74
     0
 75
     1
 76
     1
 77
     1
 78
     8
 79
     2
140
3.5
141
0.0
143
0.0393701
146
0.71
147
1.5
172
     1
176
   256
177
   256
178
     2
271
     2
272
     3
274
     4
283
     0
284
     8
340
4317
371
    -1
372
    -1
1001
ACAD_DSTYLE_DIMBREAK
1070
   391
1040
3.75
1001
ACAD_DSTYLE_DIMJAG
1070
   388
1040
1.5
1001
ACAD_DSTYLE_DIMARC_LENGTH_SYMBOL
1070
   379
1070
     1
1001
ACAD_DSTYLE_DIM_LINETYPE
1070
   380
1005
431C
1001
ACAD_DSTYLE_DIM_EXT1_LINETYPE
1070
   381
1005
431C
1001
ACAD_DSTYLE_DIM_EXT2_LINETYPE
1070
   382
1005
431C
  0
DIMSTYLE
105
4DDB
330
42C1
100
AcDbSymbolTableRecord
100
AcDbDimStyleTableRecord
  2
AM_ISO$SH
 70
     0
  4
"
 41
3.5
 42
1.0
 43
10.0
 44
1.0
 47
0.1
 48
0.1
 73
     0
 74
     0
 75
     1
 76
     1
 77
     1
 78
     8
 79
     2
140
3.5
141
0.0
143
0.0393701
144
2.0
146
0.71
147
1.5
172
     1
173
     1
176
   256
177
   256
178
     2
271
     2
272
     3
274
     4
283
     0
284
     8
340
4317
343
4B1D
371
    -1
372
    -1
1001
ACAD_DSTYLE_DIMBREAK
1070
   391
1040
3.75
1001
ACAD_DSTYLE_DIMJAG
1070
   388
1040
1.5
1001
ACAD_DSTYLE_DIMARC_LENGTH_SYMBOL
1070
   379
1070
     1
1001
ACAD_DSTYLE_DIM_LINETYPE
1070
   380
1005
431C
1001
ACAD_DSTYLE_DIM_EXT1_LINETYPE
1070
   381
1005
431C
1001
ACAD_DSTYLE_DIM_EXT2_LINETYPE
1070
   382
1005
431C
  0
DIMSTYLE
105
4DDC
330
42C1
100
AcDbSymbolTableRecord
100
AcDbDimStyleTableRecord
  2
英寸
 70
     0
  3
"
 41
15.0
 42
10.0
 43
3.75
 44
1.25
 73
     0
 74
     0
 77
     1
 78
     8
140
18.0
141
2.5
143
0.03937007874016
144
0.03937007874
147
3.0
171
     4
172
     1
176
     3
177
     3
178
     3
271
     3
272
     3
273
     7
274
     4
276
     2
277
     5
278
    44
283
     0
284
     8
340
469E
371
    13
372
    13
1001
ACAD_DSTYLE_DIMBREAK
1070
   391
1040
3.75
1001
ACAD_DSTYLE_DIMJAG
1070
   388
1040
1.5
1001
ACAD_DSTYLE_DIMTALN
1070
   392
1070
     0
1001
ACAD_DSTYLE_DIMEXT_LENGTH
1070
   378
1040
1.25
1001
ACAD_DSTYLE_DIMJOGGED_JOGANGLE_SYMBOL
1070
   384
1040
1.570796326794896
1001
ACAD_DSTYLE_DIM_LINETYPE
1070
   380
1005
431E
1001
ACAD_DSTYLE_DIM_EXT1_LINETYPE
1070
   381
1005
431E
1001
ACAD_DSTYLE_DIM_EXT2_LINETYPE
1070
   382
1005
431E
  0
DIMSTYLE
105
536B
330
42C1
100
AcDbSymbolTableRecord
100
AcDbDimStyleTableRecord
  2
XIAO
 70
     0
 41
2.0
 42
1.5
 43
1.0
 44
0.5
 73
     0
 74
     0
 77
     1
 78
     8
140
2.0
141
1.0
143
0.03937007874016
147
0.8
171
     3
172
     1
179
     1
271
     1
272
     1
274
     3
278
    44
283
     0
284
     8
340
4317
  0
DIMSTYLE
105
536C
330
42C1
100
AcDbSymbolTableRecord
100
AcDbDimStyleTableRecord
  2
副本 (3)Standard
 70
     0
  4
"
 41
16.0
 42
22.0
 44
8.0
 73
     0
 74
     0
 78
     8
 79
     2
140
16.0
141
0.0
143
0.03937
147
5.0
171
     3
172
     1
175
     1
176
     3
177
     3
178
     3
179
     1
271
     1
272
     1
273
     7
274
     3
278
    44
289
     1
340
4317
344
5366
  0
DIMSTYLE
105
536D
330
42C1
100
AcDbSymbolTableRecord
100
AcDbDimStyleTableRecord
  2
100721
 70
     0
  4
"
 41
12.0
 42
18.0
 44
7.0
 73
     0
 74
     0
 78
     8
 79
     2
140
12.0
143
0.03937
147
5.0
171
     1
172
     1
176
   256
177
   256
178
   256
179
     1
271
     1
272
     1
274
     1
278
    44
340
4317
  0
ENDTAB
  0
TABLE
  2
BLOCK_RECORD
  5
42B8
330
0
100
AcDbSymbolTable
 70
    54
  0
BLOCK_RECORD
  5
432D
102
{ACAD_XDICTIONARY
360
506A
102
}
330
42B8
100
AcDbSymbolTableRecord
100
AcDbBlockTableRecord
  2
*Model_Space
340
4330
  0
BLOCK_RECORD
  5
4329
330
42B8
100
AcDbSymbolTableRecord
100
AcDbBlockTableRecord
  2
*Paper_Space
340
432C
  0
BLOCK_RECORD
  5
440D
330
42B8
100
AcDbSymbolTableRecord
100
AcDbBlockTableRecord
  2
*D0
340
0
  0
BLOCK_RECORD
  5
440F
330
42B8
100
AcDbSymbolTableRecord
100
AcDbBlockTableRecord
  2
*U1
340
0
102
{BLKREFS
331
3497
102
}
  0
BLOCK_RECORD
  5
4415
330
42B8
100
AcDbSymbolTableRecord
100
AcDbBlockTableRecord
  2
*D2
340
0
  0
BLOCK_RECORD
  5
4417
330
42B8
100
AcDbSymbolTableRecord
100
AcDbBlockTableRecord
  2
*U3
340
0
102
{BLKREFS
331
381B
102
}
  0
BLOCK_RECORD
  5
4419
330
42B8
100
AcDbSymbolTableRecord
100
AcDbBlockTableRecord
  2
*D4
340
0
  0
BLOCK_RECORD
  5
441B
330
42B8
100
AcDbSymbolTableRecord
100
AcDbBlockTableRecord
  2
*U5
340
0
102
{BLKREFS
331
34C3
102
}
  0
BLOCK_RECORD
  5
441D
330
42B8
100
AcDbSymbolTableRecord
100
AcDbBlockTableRecord
  2
*D6
340
0
  0
BLOCK_RECORD
  5
441F
330
42B8
100
AcDbSymbolTableRecord
100
AcDbBlockTableRecord
  2
*U7
340
0
102
{BLKREFS
331
34CD
102
}
  0
BLOCK_RECORD
  5
4421
330
42B8
100
AcDbSymbolTableRecord
100
AcDbBlockTableRecord
  2
*D8
340
0
  0
BLOCK_RECORD
  5
4423
330
42B8
100
AcDbSymbolTableRecord
100
AcDbBlockTableRecord
  2
*U9
340
0
102
{BLKREFS
331
3807
102
}
  0
BLOCK_RECORD
  5
4425
330
42B8
100
AcDbSymbolTableRecord
100
AcDbBlockTableRecord
  2
*D10
340
0
  0
BLOCK_RECORD
  5
4427
330
42B8
100
AcDbSymbolTableRecord
100
AcDbBlockTableRecord
  2
*U11
340
0
102
{BLKREFS
331
382F
102
}
  0
BLOCK_RECORD
  5
4441
330
42B8
100
AcDbSymbolTableRecord
100
AcDbBlockTableRecord
  2
*D12
340
0
  0
BLOCK_RECORD
  5
4443
330
42B8
100
AcDbSymbolTableRecord
100
AcDbBlockTableRecord
  2
*U13
340
0
102
{BLKREFS
331
34B9
102
}
  0
BLOCK_RECORD
  5
4445
330
42B8
100
AcDbSymbolTableRecord
100
AcDbBlockTableRecord
  2
*D14
340
0
  0
BLOCK_RECORD
  5
4447
330
42B8
100
AcDbSymbolTableRecord
100
AcDbBlockTableRecord
  2
*U15
340
0
102
{BLKREFS
331
3576
102
}
  0
BLOCK_RECORD
  5
4451
330
42B8
100
AcDbSymbolTableRecord
100
AcDbBlockTableRecord
  2
*D16
340
0
  0
BLOCK_RECORD
  5
4453
330
42B8
100
AcDbSymbolTableRecord
100
AcDbBlockTableRecord
  2
*U17
340
0
102
{BLKREFS
331
3811
102
}
  0
BLOCK_RECORD
  5
445F
330
42B8
100
AcDbSymbolTableRecord
100
AcDbBlockTableRecord
  2
*U18
340
0
102
{BLKREFS
331
5515
102
}
  0
BLOCK_RECORD
  5
4461
330
42B8
100
AcDbSymbolTableRecord
100
AcDbBlockTableRecord
  2
*U19
340
0
102
{BLKREFS
331
5516
102
}
  0
BLOCK_RECORD
  5
4463
330
42B8
100
AcDbSymbolTableRecord
100
AcDbBlockTableRecord
  2
*U20
340
0
  0
BLOCK_RECORD
  5
4465
330
42B8
100
AcDbSymbolTableRecord
100
AcDbBlockTableRecord
  2
*U21
340
0
  0
BLOCK_RECORD
  5
4467
330
42B8
100
AcDbSymbolTableRecord
100
AcDbBlockTableRecord
  2
*U22
340
0
  0
BLOCK_RECORD
  5
4469
330
42B8
100
AcDbSymbolTableRecord
100
AcDbBlockTableRecord
  2
*U23
340
0
  0
BLOCK_RECORD
  5
446B
330
42B8
100
AcDbSymbolTableRecord
100
AcDbBlockTableRecord
  2
*U24
340
0
  0
BLOCK_RECORD
  5
446D
330
42B8
100
AcDbSymbolTableRecord
100
AcDbBlockTableRecord
  2
*U25
340
0
  0
BLOCK_RECORD
  5
4698
330
42B8
100
AcDbSymbolTableRecord
100
AcDbBlockTableRecord
  2
_Open30
340
0
  0
BLOCK_RECORD
  5
4847
330
42B8
100
AcDbSymbolTableRecord
100
AcDbBlockTableRecord
  2
*D27
340
0
  0
BLOCK_RECORD
  5
4855
330
42B8
100
AcDbSymbolTableRecord
100
AcDbBlockTableRecord
  2
*D28
340
0
  0
BLOCK_RECORD
  5
4863
330
42B8
100
AcDbSymbolTableRecord
100
AcDbBlockTableRecord
  2
*D29
340
0
  0
BLOCK_RECORD
  5
4871
330
42B8
100
AcDbSymbolTableRecord
100
AcDbBlockTableRecord
  2
*D30
340
0
  0
BLOCK_RECORD
  5
487F
330
42B8
100
AcDbSymbolTableRecord
100
AcDbBlockTableRecord
  2
*D31
340
0
  0
BLOCK_RECORD
  5
4B1D
330
42B8
100
AcDbSymbolTableRecord
100
AcDbBlockTableRecord
  2
GENAXEH
340
0
  0
BLOCK_RECORD
  5
4BBF
330
42B8
100
AcDbSymbolTableRecord
100
AcDbBlockTableRecord
  2
*D33
340
0
  0
BLOCK_RECORD
  5
4BCD
330
42B8
100
AcDbSymbolTableRecord
100
AcDbBlockTableRecord
  2
*D34
340
0
  0
BLOCK_RECORD
  5
4C22
330
42B8
100
AcDbSymbolTableRecord
100
AcDbBlockTableRecord
  2
*D35
340
0
  0
BLOCK_RECORD
  5
4C30
330
42B8
100
AcDbSymbolTableRecord
100
AcDbBlockTableRecord
  2
*D36
340
0
  0
BLOCK_RECORD
  5
4C3E
330
42B8
100
AcDbSymbolTableRecord
100
AcDbBlockTableRecord
  2
*D37
340
0
  0
BLOCK_RECORD
  5
4F2E
330
42B8
100
AcDbSymbolTableRecord
100
AcDbBlockTableRecord
  2
*D38
340
0
  0
BLOCK_RECORD
  5
4F3C
330
42B8
100
AcDbSymbolTableRecord
100
AcDbBlockTableRecord
  2
*D39
340
0
  0
BLOCK_RECORD
  5
4F4A
330
42B8
100
AcDbSymbolTableRecord
100
AcDbBlockTableRecord
  2
*D40
340
0
  0
BLOCK_RECORD
  5
5177
330
42B8
100
AcDbSymbolTableRecord
100
AcDbBlockTableRecord
  2
*D41
340
0
  0
BLOCK_RECORD
  5
5199
330
42B8
100
AcDbSymbolTableRecord
100
AcDbBlockTableRecord
  2
*D42
340
0
  0
BLOCK_RECORD
  5
51DB
330
42B8
100
AcDbSymbolTableRecord
100
AcDbBlockTableRecord
  2
*D43
340
0
  0
BLOCK_RECORD
  5
51E9
330
42B8
100
AcDbSymbolTableRecord
100
AcDbBlockTableRecord
  2
*D44
340
0
  0
BLOCK_RECORD
  5
51F7
330
42B8
100
AcDbSymbolTableRecord
100
AcDbBlockTableRecord
  2
*D45
340
0
  0
BLOCK_RECORD
  5
5205
330
42B8
100
AcDbSymbolTableRecord
100
AcDbBlockTableRecord
  2
*D46
340
0
  0
BLOCK_RECORD
  5
5366
330
42B8
100
AcDbSymbolTableRecord
100
AcDbBlockTableRecord
  2
_None
340
0
  0
BLOCK_RECORD
  5
551F
102
{ACAD_XDICTIONARY
360
5522
102
}
330
42B8
100
AcDbSymbolTableRecord
100
AcDbBlockTableRecord
  2
A$C2558637D
340
0
102
{BLKREFS
331
5526
331
5527
102
}
  0
BLOCK_RECORD
  5
5529
330
42B8
100
AcDbSymbolTableRecord
100
AcDbBlockTableRecord
  2
*D49
340
0
  0
BLOCK_RECORD
  5
5537
330
42B8
100
AcDbSymbolTableRecord
100
AcDbBlockTableRecord
  2
*D50
340
0
  0
BLOCK_RECORD
  5
5545
330
42B8
100
AcDbSymbolTableRecord
100
AcDbBlockTableRecord
  2
*D51
340
0
  0
BLOCK_RECORD
  5
5553
330
42B8
100
AcDbSymbolTableRecord
100
AcDbBlockTableRecord
  2
*D52
340
0
  0
BLOCK_RECORD
  5
55A9
330
42B8
100
AcDbSymbolTableRecord
100
AcDbBlockTableRecord
  2
*D53
340
0
  0
ENDTAB
  0
ENDSEC
  0
SECTION
  2
BLOCKS
  0
BLOCK
  5
432E
330
432D
100
AcDbEntity
  8
0
100
AcDbBlockBegin
  2
*Model_Space
 70
     0
 10
0.0
 20
0.0
 30
0.0
  3
*Model_Space
  1

  0
ENDBLK
  5
432F
330
432D
100
AcDbEntity
  8
0
100
AcDbBlockEnd
  0
BLOCK
  5
432A
330
4329
100
AcDbEntity
 67
     1
  8
0
100
AcDbBlockBegin
  2
*Paper_Space
 70
     0
 10
0.0
 20
0.0
 30
0.0
  3
*Paper_Space
  1

  0
ENDBLK
  5
432B
330
4329
100
AcDbEntity
 67
     1
  8
0
100
AcDbBlockEnd
  0
BLOCK
  5
440E
330
440D
100
AcDbEntity
  8
0
100
AcDbBlockBegin
  2
*D0
 70
     1
 10
0.0
 20
0.0
 30
0.0
  3
*D0
  1

  0
LINE
  5
3491
330
440D
100
AcDbEntity
  8
标注
  6
ByBlock
100
AcDbLine
 10
453.6164645460622
 20
161.054463058452
 30
0.0
 11
453.6164645460622
 21
152.1541856005704
 31
0.0
  0
LINE
  5
3492
330
440D
100
AcDbEntity
  8
标注
  6
ByBlock
100
AcDbLine
 10
463.616464546022
 20
161.054463058452
 30
0.0
 11
463.616464546022
 21
152.1541856005704
 31
0.0
  0
LINE
  5
3493
330
440D
100
AcDbEntity
  8
标注
  6
ByBlock
100
AcDbLine
 10
454.2664645460621
 20
152.4741856005704
 30
0.0
 11
457.8206312127088
 21
152.4741856005704
 31
0.0
  0
LINE
  5
3494
330
440D
100
AcDbEntity
  8
标注
  6
ByBlock
100
AcDbLine
 10
462.9664645460223
 20
152.4741856005704
 30
0.0
 11
459.4122978793754
 21
152.4741856005704
 31
0.0
  0
SOLID
  5
3495
330
440D
100
AcDbEntity
  8
标注
100
AcDbTrace
 10
454.2664645460621
 20
152.5825189339037
 30
0.0
 11
454.2664645460621
 21
152.3658522672371
 31
0.0
 12
453.6164645460622
 22
152.4741856005704
 32
0.0
 13
453.6164645460622
 23
152.4741856005704
 33
0.0
  0
SOLID
  5
3496
330
440D
100
AcDbEntity
  8
标注
100
AcDbTrace
 10
462.9664645460223
 20
152.5825189339037
 30
0.0
 11
462.9664645460223
 21
152.3658522672371
 31
0.0
 12
463.616464546022
 22
152.4741856005704
 32
0.0
 13
463.616464546022
 23
152.4741856005704
 33
0.0
  0
INSERT
  5
3497
330
440D
100
AcDbEntity
  8
0
100
AcDbBlockReference
  2
*U1
 10
0.0
 20
0.0
 30
0.0
  0
POINT
  5
3498
330
440D
100
AcDbEntity
  8
DEFPOINTS
 62
     0
100
AcDbPoint
 10
453.6164645460622
 20
161.934463058452
 30
0.0
  0
POINT
  5
3499
330
440D
100
AcDbEntity
  8
DEFPOINTS
 62
     0
100
AcDbPoint
 10
463.616464546022
 20
161.934463058452
 30
0.0
  0
POINT
  5
349A
330
440D
100
AcDbEntity
  8
DEFPOINTS
 62
     0
100
AcDbPoint
 10
463.616464546022
 20
152.4741856005704
 30
0.0
  0
ENDBLK
  5
33E8
330
440D
100
AcDbEntity
  8
0
100
AcDbBlockEnd
  0
BLOCK
  5
4410
330
440F
100
AcDbEntity
  8
0
100
AcDbBlockBegin
  2
*U1
 70
     1
 10
0.0
 20
0.0
 30
0.0
  3
*U1
  1

  0
TEXT
  5
3F06
330
440F
100
AcDbEntity
  8
标注
100
AcDbText
 10
458.0206312127088
 20
152.1491856005704
 30
0.0
 40
0.65
  1
10"
100
AcDbText
  0
ENDBLK
  5
3F08
330
440F
100
AcDbEntity
  8
0
100
AcDbBlockEnd
  0
BLOCK
  5
4416
330
4415
100
AcDbEntity
  8
0
100
AcDbBlockBegin
  2
*D2
 70
     1
 10
0.0
 20
0.0
 30
0.0
  3
*D2
  1

  0
LINE
  5
3815
330
4415
100
AcDbEntity
  8
标注
  6
ByBlock
100
AcDbLine
 10
452.3943545009451
 20
161.7240958431686
 30
0.0
 11
452.3943545009451
 21
152.1541856005704
 31
0.0
  0
LINE
  5
3816
330
4415
100
AcDbEntity
  8
标注
  6
ByBlock
100
AcDbLine
 10
438.5770944673701
 20
162.1174551844199
 30
0.0
 11
438.5770944673701
 21
152.1541856005704
 31
0.0
  0
LINE
  5
3817
330
4415
100
AcDbEntity
  8
标注
  6
ByBlock
100
AcDbLine
 10
451.7443545009451
 20
152.4741856005704
 30
0.0
 11
447.6357244841577
 21
152.4741856005704
 31
0.0
  0
LINE
  5
3818
330
4415
100
AcDbEntity
  8
标注
  6
ByBlock
100
AcDbLine
 10
439.2270944673703
 20
152.4741856005704
 30
0.0
 11
443.3357244841577
 21
152.4741856005704
 31
0.0
  0
SOLID
  5
3819
330
4415
100
AcDbEntity
  8
标注
100
AcDbTrace
 10
451.7443545009451
 20
152.5825189339037
 30
0.0
 11
451.7443545009451
 21
152.3658522672371
 31
0.0
 12
452.3943545009451
 22
152.4741856005704
 32
0.0
 13
452.3943545009451
 23
152.4741856005704
 33
0.0
  0
SOLID
  5
381A
330
4415
100
AcDbEntity
  8
标注
100
AcDbTrace
 10
439.2270944673703
 20
152.5825189339037
 30
0.0
 11
439.2270944673703
 21
152.3658522672371
 31
0.0
 12
438.5770944673701
 22
152.4741856005704
 32
0.0
 13
438.5770944673701
 23
152.4741856005704
 33
0.0
  0
INSERT
  5
381B
330
4415
100
AcDbEntity
  8
0
100
AcDbBlockReference
  2
*U3
 10
0.0
 20
0.0
 30
0.0
  0
POINT
  5
381C
330
4415
100
AcDbEntity
  8
DEFPOINTS
 62
     0
100
AcDbPoint
 10
452.3943545009451
 20
162.6040958431686
 30
0.0
  0
POINT
  5
381D
330
4415
100
AcDbEntity
  8
DEFPOINTS
 62
     0
100
AcDbPoint
 10
438.5770944673701
 20
162.9974551844199
 30
0.0
  0
POINT
  5
381E
330
4415
100
AcDbEntity
  8
DEFPOINTS
 62
     0
100
AcDbPoint
 10
438.5770944673701
 20
152.4741856005704
 30
0.0
  0
ENDBLK
  5
3403
330
4415
100
AcDbEntity
  8
0
100
AcDbBlockEnd
  0
BLOCK
  5
4418
330
4417
100
AcDbEntity
  8
0
100
AcDbBlockBegin
  2
*U3
 70
     1
 10
0.0
 20
0.0
 30
0.0
  3
*U3
  1

  0
TEXT
  5
3F59
330
4417
100
AcDbEntity
  8
标注
100
AcDbText
 10
443.5357244841577
 20
152.1491856005704
 30
0.0
 40
0.65
  1
13 3/4"
100
AcDbText
  0
ENDBLK
  5
3F5B
330
4417
100
AcDbEntity
  8
0
100
AcDbBlockEnd
  0
BLOCK
  5
441A
330
4419
100
AcDbEntity
  8
0
100
AcDbBlockBegin
  2
*D4
 70
     1
 10
0.0
 20
0.0
 30
0.0
  3
*D4
  1

  0
LINE
  5
34BD
330
4419
100
AcDbEntity
  8
标注
  6
ByBlock
100
AcDbLine
 10
459.4964645459021
 20
154.9659591214723
 30
0.0
 11
466.0764453192927
 21
154.9659591214723
 31
0.0
  0
LINE
  5
34BE
330
4419
100
AcDbEntity
  8
标注
  6
ByBlock
100
AcDbLine
 10
459.4964645463058
 20
168.9817071529096
 30
0.0
 11
466.0764453192927
 21
168.9817071529096
 31
0.0
  0
LINE
  5
34BF
330
4419
100
AcDbEntity
  8
标注
  6
ByBlock
100
AcDbLine
 10
465.7564453192925
 20
155.6159591214723
 30
0.0
 11
465.7564453192925
 21
161.1238331371909
 31
0.0
  0
LINE
  5
34C0
330
4419
100
AcDbEntity
  8
标注
  6
ByBlock
100
AcDbLine
 10
465.7564453192925
 20
168.3317071529097
 30
0.0
 11
465.7564453192925
 21
162.8238331371909
 31
0.0
  0
SOLID
  5
34C1
330
4419
100
AcDbEntity
  8
标注
100
AcDbTrace
 10
465.6481119859591
 20
155.6159591214723
 30
0.0
 11
465.864778652626
 21
155.6159591214723
 31
0.0
 12
465.7564453192925
 22
154.9659591214723
 32
0.0
 13
465.7564453192925
 23
154.9659591214723
 33
0.0
  0
SOLID
  5
34C2
330
4419
100
AcDbEntity
  8
标注
100
AcDbTrace
 10
465.6481119859591
 20
168.3317071529097
 30
0.0
 11
465.864778652626
 21
168.3317071529097
 31
0.0
 12
465.7564453192925
 22
168.9817071529096
 32
0.0
 13
465.7564453192925
 23
168.9817071529096
 33
0.0
  0
INSERT
  5
34C3
330
4419
100
AcDbEntity
  8
0
100
AcDbBlockReference
  2
*U5
 10
0.0
 20
0.0
 30
0.0
  0
POINT
  5
34C4
330
4419
100
AcDbEntity
  8
DEFPOINTS
 62
     0
100
AcDbPoint
 10
458.616464545902
 20
154.9659591214723
 30
0.0
  0
POINT
  5
34C5
330
4419
100
AcDbEntity
  8
DEFPOINTS
 62
     0
100
AcDbPoint
 10
458.6164645463058
 20
168.9817071529096
 30
0.0
  0
POINT
  5
34C6
330
4419
100
AcDbEntity
  8
DEFPOINTS
 62
     0
100
AcDbPoint
 10
465.7564453192925
 20
168.9817071529096
 30
0.0
  0
ENDBLK
  5
3410
330
4419
100
AcDbEntity
  8
0
100
AcDbBlockEnd
  0
BLOCK
  5
441C
330
441B
100
AcDbEntity
  8
0
100
AcDbBlockBegin
  2
*U5
 70
     1
 10
0.0
 20
0.0
 30
0.0
  3
*U5
  1

  0
TEXT
  5
3F12
330
441B
100
AcDbEntity
  8
标注
100
AcDbText
 10
466.0814453192925
 20
161.323833137191
 30
0.0
 40
0.65
  1
14"
 50
90.0
100
AcDbText
  0
ENDBLK
  5
3F14
330
441B
100
AcDbEntity
  8
0
100
AcDbBlockEnd
  0
BLOCK
  5
441E
330
441D
100
AcDbEntity
  8
0
100
AcDbBlockBegin
  2
*D6
 70
     1
 10
0.0
 20
0.0
 30
0.0
  3
*D6
  1

  0
LINE
  5
34C7
330
441D
100
AcDbEntity
  8
标注
100
AcDbLine
 10
465.4964645460185
 20
187.983917000921
 30
0.0
 11
465.581994229596
 21
187.983917000921
 31
0.0
  0
LINE
  5
34C8
330
441D
100
AcDbEntity
  8
标注
100
AcDbLine
 10
461.3742354899967
 20
180.9760429852023
 30
0.0
 11
465.581994229596
 21
180.9760429852023
 31
0.0
  0
LINE
  5
34C9
330
441D
100
AcDbEntity
  8
标注
100
AcDbLine
 10
465.261994229596
 20
187.333917000921
 30
0.0
 11
465.261994229596
 21
185.1133133263949
 31
0.0
  0
LINE
  5
34CA
330
441D
100
AcDbEntity
  8
标注
100
AcDbLine
 10
465.261994229596
 20
181.6260429852023
 30
0.0
 11
465.261994229596
 21
183.8466466597282
 31
0.0
  0
SOLID
  5
34CB
330
441D
100
AcDbEntity
  8
标注
100
AcDbTrace
 10
465.1536608962626
 20
187.333917000921
 30
0.0
 11
465.3703275629291
 21
187.333917000921
 31
0.0
 12
465.261994229596
 22
187.983917000921
 32
0.0
 13
465.261994229596
 23
187.983917000921
 33
0.0
  0
SOLID
  5
34CC
330
441D
100
AcDbEntity
  8
标注
100
AcDbTrace
 10
465.1536608962626
 20
181.6260429852023
 30
0.0
 11
465.3703275629291
 21
181.6260429852023
 31
0.0
 12
465.261994229596
 22
180.9760429852023
 32
0.0
 13
465.261994229596
 23
180.9760429852023
 33
0.0
  0
INSERT
  5
34CD
330
441D
100
AcDbEntity
  8
0
100
AcDbBlockReference
  2
*U7
 10
0.0
 20
0.0
 30
0.0
  0
POINT
  5
34CE
330
441D
100
AcDbEntity
  8
DEFPOINTS
 62
     0
100
AcDbPoint
 10
464.6164645460185
 20
187.983917000921
 30
0.0
  0
POINT
  5
34CF
330
441D
100
AcDbEntity
  8
DEFPOINTS
 62
     0
100
AcDbPoint
 10
460.4942354899967
 20
180.9760429852023
 30
0.0
  0
POINT
  5
34D0
330
441D
100
AcDbEntity
  8
DEFPOINTS
 62
     0
100
AcDbPoint
 10
465.261994229596
 20
180.9760429852023
 30
0.0
  0
ENDBLK
  5
341D
330
441D
100
AcDbEntity
  8
0
100
AcDbBlockEnd
  0
BLOCK
  5
4420
330
441F
100
AcDbEntity
  8
0
100
AcDbBlockBegin
  2
*U7
 70
     1
 10
0.0
 20
0.0
 30
0.0
  3
*U7
  1

  0
TEXT
  5
3F16
330
441F
100
AcDbEntity
  8
标注
100
AcDbText
 10
465.5869942295957
 20
184.0466466597283
 30
0.0
 40
0.65
  1
7"
 50
90.0
100
AcDbText
  0
ENDBLK
  5
3F18
330
441F
100
AcDbEntity
  8
0
100
AcDbBlockEnd
  0
BLOCK
  5
4422
330
4421
100
AcDbEntity
  8
0
100
AcDbBlockBegin
  2
*D8
 70
     1
 10
0.0
 20
0.0
 30
0.0
  3
*D8
  1

  0
LINE
  5
3801
330
4421
100
AcDbEntity
  8
标注
  6
ByBlock
100
AcDbLine
 10
437.4944173020221
 20
157.8103685702701
 30
0.0
 11
437.4944173020221
 21
150.712346408988
 31
0.0
  0
LINE
  5
3802
330
4421
100
AcDbEntity
  8
标注
  6
ByBlock
100
AcDbLine
 10
464.6597716326312
 20
157.8103685702701
 30
0.0
 11
464.6597716326312
 21
150.712346408988
 31
0.0
  0
LINE
  5
3803
330
4421
100
AcDbEntity
  8
标注
  6
ByBlock
100
AcDbLine
 10
438.144417302022
 20
151.032346408988
 30
0.0
 11
448.9270944673266
 21
151.032346408988
 31
0.0
  0
LINE
  5
3804
330
4421
100
AcDbEntity
  8
标注
  6
ByBlock
100
AcDbLine
 10
464.0097716326311
 20
151.032346408988
 30
0.0
 11
453.2270944673268
 21
151.032346408988
 31
0.0
  0
SOLID
  5
3805
330
4421
100
AcDbEntity
  8
标注
100
AcDbTrace
 10
438.144417302022
 20
151.1406797423213
 30
0.0
 11
438.144417302022
 21
150.9240130756547
 31
0.0
 12
437.4944173020221
 22
151.032346408988
 32
0.0
 13
437.4944173020221
 23
151.032346408988
 33
0.0
  0
SOLID
  5
3806
330
4421
100
AcDbEntity
  8
标注
100
AcDbTrace
 10
464.0097716326311
 20
151.1406797423213
 30
0.0
 11
464.0097716326311
 21
150.9240130756547
 31
0.0
 12
464.6597716326312
 22
151.032346408988
 32
0.0
 13
464.6597716326312
 23
151.032346408988
 33
0.0
  0
INSERT
  5
3807
330
4421
100
AcDbEntity
  8
0
100
AcDbBlockReference
  2
*U9
 10
0.0
 20
0.0
 30
0.0
  0
POINT
  5
3808
330
4421
100
AcDbEntity
  8
DEFPOINTS
 62
     0
100
AcDbPoint
 10
437.4944173020221
 20
158.6903685702701
 30
0.0
  0
POINT
  5
3809
330
4421
100
AcDbEntity
  8
DEFPOINTS
 62
     0
100
AcDbPoint
 10
464.6597716326312
 20
158.6903685702701
 30
0.0
  0
POINT
  5
380A
330
4421
100
AcDbEntity
  8
DEFPOINTS
 62
     0
100
AcDbPoint
 10
464.6597716326312
 20
151.032346408988
 30
0.0
  0
ENDBLK
  5
342A
330
4421
100
AcDbEntity
  8
0
100
AcDbBlockEnd
  0
BLOCK
  5
4424
330
4423
100
AcDbEntity
  8
0
100
AcDbBlockBegin
  2
*U9
 70
     1
 10
0.0
 20
0.0
 30
0.0
  3
*U9
  1

  0
TEXT
  5
3F51
330
4423
100
AcDbEntity
  8
标注
100
AcDbText
 10
449.1270944673265
 20
150.707346408988
 30
0.0
 40
0.65
  1
27 1/8"
100
AcDbText
  0
ENDBLK
  5
3F53
330
4423
100
AcDbEntity
  8
0
100
AcDbBlockEnd
  0
BLOCK
  5
4426
330
4425
100
AcDbEntity
  8
0
100
AcDbBlockBegin
  2
*D10
 70
     1
 10
0.0
 20
0.0
 30
0.0
  3
*D10
  1

  0
LINE
  5
3829
330
4425
100
AcDbEntity
  8
标注
  6
ByBlock
100
AcDbLine
 10
460.7720550972167
 20
153.7848567592729
 30
0.0
 11
467.4400858694927
 21
153.7848567592729
 31
0.0
  0
LINE
  5
382A
330
4425
100
AcDbEntity
  8
标注
  6
ByBlock
100
AcDbLine
 10
460.6342598216303
 20
170.0446992788921
 30
0.0
 11
467.4400858694927
 21
170.0446992788921
 31
0.0
  0
LINE
  5
382B
330
4425
100
AcDbEntity
  8
标注
  6
ByBlock
100
AcDbLine
 10
467.1200858694929
 20
154.4348567592729
 30
0.0
 11
467.1200858694929
 21
159.8731113524157
 31
0.0
  0
LINE
  5
382C
330
4425
100
AcDbEntity
  8
标注
  6
ByBlock
100
AcDbLine
 10
467.1200858694929
 20
169.3946992788921
 30
0.0
 11
467.1200858694929
 21
163.9564446857491
 31
0.0
  0
SOLID
  5
382D
330
4425
100
AcDbEntity
  8
标注
100
AcDbTrace
 10
467.0117525361596
 20
154.4348567592729
 30
0.0
 11
467.2284192028262
 21
154.4348567592729
 31
0.0
 12
467.1200858694929
 22
153.7848567592729
 32
0.0
 13
467.1200858694929
 23
153.7848567592729
 33
0.0
  0
SOLID
  5
382E
330
4425
100
AcDbEntity
  8
标注
100
AcDbTrace
 10
467.0117525361596
 20
169.3946992788921
 30
0.0
 11
467.2284192028262
 21
169.3946992788921
 31
0.0
 12
467.1200858694929
 22
170.0446992788921
 32
0.0
 13
467.1200858694929
 23
170.0446992788921
 33
0.0
  0
INSERT
  5
382F
330
4425
100
AcDbEntity
  8
0
100
AcDbBlockReference
  2
*U11
 10
0.0
 20
0.0
 30
0.0
  0
POINT
  5
3830
330
4425
100
AcDbEntity
  8
DEFPOINTS
 62
     0
100
AcDbPoint
 10
459.892055097217
 20
153.7848567592729
 30
0.0
  0
POINT
  5
3831
330
4425
100
AcDbEntity
  8
DEFPOINTS
 62
     0
100
AcDbPoint
 10
459.7542598216303
 20
170.0446992788921
 30
0.0
  0
POINT
  5
3832
330
4425
100
AcDbEntity
  8
DEFPOINTS
 62
     0
100
AcDbPoint
 10
467.1200858694929
 20
170.0446992788921
 30
0.0
  0
ENDBLK
  5
3437
330
4425
100
AcDbEntity
  8
0
100
AcDbBlockEnd
  0
BLOCK
  5
4428
330
4427
100
AcDbEntity
  8
0
100
AcDbBlockBegin
  2
*U11
 70
     1
 10
0.0
 20
0.0
 30
0.0
  3
*U11
  1

  0
TEXT
  5
3F5D
330
4427
100
AcDbEntity
  8
标注
100
AcDbText
 10
467.4450858694927
 20
160.0731113524158
 30
0.0
 40
0.65
  1
16 1/4"
 50
90.0
100
AcDbText
  0
ENDBLK
  5
3F5F
330
4427
100
AcDbEntity
  8
0
100
AcDbBlockEnd
  0
BLOCK
  5
4442
330
4441
100
AcDbEntity
  8
0
100
AcDbBlockBegin
  2
*D12
 70
     1
 10
0.0
 20
0.0
 30
0.0
  3
*D12
  1

  0
LINE
  5
34B3
330
4441
100
AcDbEntity
  8
标注
  6
ByBlock
100
AcDbLine
 10
444.6065432862452
 20
154.9659591214723
 30
0.0
 11
435.7018696967847
 21
154.9659591214723
 31
0.0
  0
LINE
  5
34B4
330
4441
100
AcDbEntity
  8
标注
  6
ByBlock
100
AcDbLine
 10
444.6065432862452
 20
171.028951247382
 30
0.0
 11
435.7018696967847
 21
171.028951247382
 31
0.0
  0
LINE
  5
34B5
330
4441
100
AcDbEntity
  8
标注
  6
ByBlock
100
AcDbLine
 10
436.0218696967849
 20
155.6159591214723
 30
0.0
 11
436.0218696967849
 21
160.9557885177677
 31
0.0
  0
LINE
  5
34B6
330
4441
100
AcDbEntity
  8
标注
  6
ByBlock
100
AcDbLine
 10
436.0218696967849
 20
170.378951247382
 30
0.0
 11
436.0218696967849
 21
165.039121851101
 31
0.0
  0
SOLID
  5
34B7
330
4441
100
AcDbEntity
  8
标注
100
AcDbTrace
 10
435.9135363634516
 20
155.6159591214723
 30
0.0
 11
436.1302030301184
 21
155.6159591214723
 31
0.0
 12
436.0218696967849
 22
154.9659591214723
 32
0.0
 13
436.0218696967849
 23
154.9659591214723
 33
0.0
  0
SOLID
  5
34B8
330
4441
100
AcDbEntity
  8
标注
100
AcDbTrace
 10
435.9135363634516
 20
170.378951247382
 30
0.0
 11
436.1302030301184
 21
170.378951247382
 31
0.0
 12
436.0218696967849
 22
171.028951247382
 32
0.0
 13
436.0218696967849
 23
171.028951247382
 33
0.0
  0
INSERT
  5
34B9
330
4441
100
AcDbEntity
  8
0
100
AcDbBlockReference
  2
*U13
 10
0.0
 20
0.0
 30
0.0
  0
POINT
  5
34BA
330
4441
100
AcDbEntity
  8
DEFPOINTS
 62
     0
100
AcDbPoint
 10
445.4865432862452
 20
154.9659591214723
 30
0.0
  0
POINT
  5
34BB
330
4441
100
AcDbEntity
  8
DEFPOINTS
 62
     0
100
AcDbPoint
 10
445.4865432862452
 20
171.028951247382
 30
0.0
  0
POINT
  5
34BC
330
4441
100
AcDbEntity
  8
DEFPOINTS
 62
     0
100
AcDbPoint
 10
436.0218696967849
 20
171.028951247382
 30
0.0
  0
ENDBLK
  5
34B2
330
4441
100
AcDbEntity
  8
0
100
AcDbBlockEnd
  0
BLOCK
  5
4444
330
4443
100
AcDbEntity
  8
0
100
AcDbBlockBegin
  2
*U13
 70
     1
 10
0.0
 20
0.0
 30
0.0
  3
*U13
  1

  0
TEXT
  5
3F0E
330
4443
100
AcDbEntity
  8
标注
100
AcDbText
 10
436.3468696967848
 20
161.1557885177677
 30
0.0
 40
0.65
  1
16 1/8"
 50
90.0
100
AcDbText
  0
ENDBLK
  5
3F10
330
4443
100
AcDbEntity
  8
0
100
AcDbBlockEnd
  0
BLOCK
  5
4446
330
4445
100
AcDbEntity
  8
0
100
AcDbBlockBegin
  2
*D14
 70
     1
 10
0.0
 20
0.0
 30
0.0
  3
*D14
  1

  0
LINE
  5
3570
330
4445
100
AcDbEntity
  8
标注
100
AcDbLine
 10
442.2812503129256
 20
179.9933406007001
 30
0.0
 11
436.0088189754862
 21
179.9933406007001
 31
0.0
  0
LINE
  5
3571
330
4445
100
AcDbEntity
  8
标注
100
AcDbLine
 10
436.657724385966
 20
187.9839170010344
 30
0.0
 11
436.0088189754862
 21
187.9839170010344
 31
0.0
  0
LINE
  5
3572
330
4445
100
AcDbEntity
  8
标注
100
AcDbLine
 10
436.3288189754864
 20
180.6433406007001
 30
0.0
 11
436.3288189754864
 21
183.3552954675338
 31
0.0
  0
LINE
  5
3573
330
4445
100
AcDbEntity
  8
标注
100
AcDbLine
 10
436.3288189754864
 20
187.3339170010343
 30
0.0
 11
436.3288189754864
 21
184.6219621342005
 31
0.0
  0
SOLID
  5
3574
330
4445
100
AcDbEntity
  8
标注
100
AcDbTrace
 10
436.2204856421526
 20
180.6433406007001
 30
0.0
 11
436.4371523088196
 21
180.6433406007001
 31
0.0
 12
436.3288189754864
 22
179.9933406007001
 32
0.0
 13
436.3288189754864
 23
179.9933406007001
 33
0.0
  0
SOLID
  5
3575
330
4445
100
AcDbEntity
  8
标注
100
AcDbTrace
 10
436.2204856421526
 20
187.3339170010343
 30
0.0
 11
436.4371523088196
 21
187.3339170010343
 31
0.0
 12
436.3288189754864
 22
187.9839170010344
 32
0.0
 13
436.3288189754864
 23
187.9839170010344
 33
0.0
  0
INSERT
  5
3576
330
4445
100
AcDbEntity
  8
0
100
AcDbBlockReference
  2
*U15
 10
0.0
 20
0.0
 30
0.0
  0
POINT
  5
3577
330
4445
100
AcDbEntity
  8
DEFPOINTS
 62
     0
100
AcDbPoint
 10
443.1612503129257
 20
179.9933406007001
 30
0.0
  0
POINT
  5
3578
330
4445
100
AcDbEntity
  8
DEFPOINTS
 62
     0
100
AcDbPoint
 10
437.5377243859662
 20
187.9839170010344
 30
0.0
  0
POINT
  5
3579
330
4445
100
AcDbEntity
  8
DEFPOINTS
 62
     0
100
AcDbPoint
 10
436.3288189754864
 20
187.9839170010344
 30
0.0
  0
ENDBLK
  5
34D3
330
4445
100
AcDbEntity
  8
0
100
AcDbBlockEnd
  0
BLOCK
  5
4448
330
4447
100
AcDbEntity
  8
0
100
AcDbBlockBegin
  2
*U15
 70
     1
 10
0.0
 20
0.0
 30
0.0
  3
*U15
  1

  0
TEXT
  5
3F36
330
4447
100
AcDbEntity
  8
标注
100
AcDbText
 10
436.6538189754861
 20
183.5552954675339
 30
0.0
 40
0.65
  1
8"
 50
90.0
100
AcDbText
  0
ENDBLK
  5
3F38
330
4447
100
AcDbEntity
  8
0
100
AcDbBlockEnd
  0
BLOCK
  5
4452
330
4451
100
AcDbEntity
  8
0
100
AcDbBlockBegin
  2
*D16
 70
     1
 10
0.0
 20
0.0
 30
0.0
  3
*D16
  1

  0
LINE
  5
380B
330
4451
100
AcDbEntity
  8
标注
  6
ByBlock
100
AcDbLine
 10
441.5396141523959
 20
153.7848567592661
 30
0.0
 11
434.6236625535586
 21
153.7848567592661
 31
0.0
  0
LINE
  5
380C
330
4451
100
AcDbEntity
  8
标注
  6
ByBlock
100
AcDbLine
 10
441.5396141523959
 20
172.2100536095747
 30
0.0
 11
434.6236625535586
 21
172.2100536095747
 31
0.0
  0
LINE
  5
380D
330
4451
100
AcDbEntity
  8
标注
  6
ByBlock
100
AcDbLine
 10
434.9436625535591
 20
154.4348567592661
 30
0.0
 11
434.9436625535591
 21
160.955788517761
 31
0.0
  0
LINE
  5
380E
330
4451
100
AcDbEntity
  8
标注
  6
ByBlock
100
AcDbLine
 10
434.9436625535591
 20
171.5600536095747
 30
0.0
 11
434.9436625535591
 21
165.0391218510943
 31
0.0
  0
SOLID
  5
380F
330
4451
100
AcDbEntity
  8
标注
100
AcDbTrace
 10
434.8353292202256
 20
154.4348567592661
 30
0.0
 11
435.0519958868924
 21
154.4348567592661
 31
0.0
 12
434.9436625535591
 22
153.7848567592661
 32
0.0
 13
434.9436625535591
 23
153.7848567592661
 33
0.0
  0
SOLID
  5
3810
330
4451
100
AcDbEntity
  8
标注
100
AcDbTrace
 10
434.8353292202256
 20
171.5600536095747
 30
0.0
 11
435.0519958868924
 21
171.5600536095747
 31
0.0
 12
434.9436625535591
 22
172.2100536095747
 32
0.0
 13
434.9436625535591
 23
172.2100536095747
 33
0.0
  0
INSERT
  5
3811
330
4451
100
AcDbEntity
  8
0
100
AcDbBlockReference
  2
*U17
 10
0.0
 20
0.0
 30
0.0
  0
POINT
  5
3812
330
4451
100
AcDbEntity
  8
DEFPOINTS
 62
     0
100
AcDbPoint
 10
442.419614152396
 20
153.7848567592661
 30
0.0
  0
POINT
  5
3813
330
4451
100
AcDbEntity
  8
DEFPOINTS
 62
     0
100
AcDbPoint
 10
442.419614152396
 20
172.2100536095747
 30
0.0
  0
POINT
  5
3814
330
4451
100
AcDbEntity
  8
DEFPOINTS
 62
     0
100
AcDbPoint
 10
434.9436625535591
 20
172.2100536095747
 30
0.0
  0
ENDBLK
  5
3504
330
4451
100
AcDbEntity
  8
0
100
AcDbBlockEnd
  0
BLOCK
  5
4454
330
4453
100
AcDbEntity
  8
0
100
AcDbBlockBegin
  2
*U17
 70
     1
 10
0.0
 20
0.0
 30
0.0
  3
*U17
  1

  0
TEXT
  5
3F55
330
4453
100
AcDbEntity
  8
标注
100
AcDbText
 10
435.2686625535588
 20
161.155788517761
 30
0.0
 40
0.65
  1
18 1/2"
 50
90.0
100
AcDbText
  0
ENDBLK
  5
3F57
330
4453
100
AcDbEntity
  8
0
100
AcDbBlockEnd
  0
BLOCK
  5
4460
330
445F
100
AcDbEntity
  8
0
100
AcDbBlockBegin
  2
*U18
 70
     1
 10
0.0
 20
0.0
 30
0.0
  3
*U18
  1

  0
TEXT
  5
3F49
330
445F
100
AcDbEntity
  8
标注
100
AcDbText
 10
448.6543370278099
 20
176.5639646558375
 30
0.0
 40
0.7874015748031497
  1
FRONT VIEW
100
AcDbText
  0
ENDBLK
  5
3F4B
330
445F
100
AcDbEntity
  8
0
100
AcDbBlockEnd
  0
BLOCK
  5
4462
330
4461
100
AcDbEntity
  8
0
100
AcDbBlockBegin
  2
*U19
 70
     1
 10
0.0
 20
0.0
 30
0.0
  3
*U19
  1

  0
TEXT
  5
3F4D
330
4461
100
AcDbEntity
  8
标注
100
AcDbText
 10
446.9249478288684
 20
147.5695321124926
 30
0.0
 40
0.7874015748031497
  1
OVERHEAD VIEW
100
AcDbText
  0
ENDBLK
  5
3F4F
330
4461
100
AcDbEntity
  8
0
100
AcDbBlockEnd
  0
BLOCK
  5
4464
330
4463
100
AcDbEntity
  8
0
100
AcDbBlockBegin
  2
*U20
 70
     1
 10
0.0
 20
0.0
 30
0.0
  3
*U20
  1

  0
TEXT
  5
3F61
330
4463
100
AcDbEntity
  8
标注
100
AcDbText
 10
448.5331378829473
 20
102.4289209665645
 30
0.0
 40
0.7874015748031497
  1
1/4" 
100
AcDbText
  0
TEXT
  5
3F62
330
4463
100
AcDbEntity
  8
标注
100
AcDbText
 10
451.9452113737608
 20
102.4289209665645
 30
0.0
 40
0.7874015748031497
  1
OVERHANG CUTOUT
100
AcDbText
  0
ENDBLK
  5
3F64
330
4463
100
AcDbEntity
  8
0
100
AcDbBlockEnd
  0
BLOCK
  5
4466
330
4465
100
AcDbEntity
  8
0
100
AcDbBlockBegin
  2
*U21
 70
     1
 10
0.0
 20
0.0
 30
0.0
  3
*U21
  1

  0
TEXT
  5
3F66
330
4465
100
AcDbEntity
  8
标注
100
AcDbText
 10
448.4429035960663
 20
104.3974249035725
 30
0.0
 40
0.7874015748031497
  1
FLUSH CUTOUT
100
AcDbText
  0
ENDBLK
  5
3F68
330
4465
100
AcDbEntity
  8
0
100
AcDbBlockEnd
  0
BLOCK
  5
4468
330
4467
100
AcDbEntity
  8
0
100
AcDbBlockBegin
  2
*U22
 70
     1
 10
0.0
 20
0.0
 30
0.0
  3
*U22
  1

  0
TEXT
  5
3F6A
330
4467
100
AcDbEntity
  8
标注
100
AcDbText
 10
448.5331378829473
 20
106.3659288405804
 30
0.0
 40
0.7874015748031497
  1
1/4" 
100
AcDbText
  0
TEXT
  5
3F6B
330
4467
100
AcDbEntity
  8
标注
100
AcDbText
 10
451.9452113737608
 20
106.3659288405804
 30
0.0
 40
0.7874015748031497
  1
REVEAL CUTOUT
100
AcDbText
  0
ENDBLK
  5
3F6D
330
4467
100
AcDbEntity
  8
0
100
AcDbBlockEnd
  0
BLOCK
  5
446A
330
4469
100
AcDbEntity
  8
0
100
AcDbBlockBegin
  2
*U23
 70
     1
 10
0.0
 20
0.0
 30
0.0
  3
*U23
  1

  0
TEXT
  5
3F7E
330
4469
100
AcDbEntity
  8
标注
100
AcDbText
 10
448.5331378829473
 20
72.09550313691884
 30
0.0
 40
0.7874015748031497
  1
1/4" 
100
AcDbText
  0
TEXT
  5
3F7F
330
4469
100
AcDbEntity
  8
标注
100
AcDbText
 10
451.9452113737608
 20
72.09550313691884
 30
0.0
 40
0.7874015748031497
  1
REVEAL CUTOUT
100
AcDbText
  0
ENDBLK
  5
3F81
330
4469
100
AcDbEntity
  8
0
100
AcDbBlockEnd
  0
BLOCK
  5
446C
330
446B
100
AcDbEntity
  8
0
100
AcDbBlockBegin
  2
*U24
 70
     1
 10
0.0
 20
0.0
 30
0.0
  3
*U24
  1

  0
TEXT
  5
3F93
330
446B
100
AcDbEntity
  8
标注
100
AcDbText
 10
449.6014102680128
 20
38.98337568230097
 30
0.0
 40
0.7874015748031497
  1
FLUSH CUTOUT
100
AcDbText
  0
ENDBLK
  5
3F95
330
446B
100
AcDbEntity
  8
0
100
AcDbBlockEnd
  0
BLOCK
  5
446E
330
446D
100
AcDbEntity
  8
0
100
AcDbBlockBegin
  2
*U25
 70
     1
 10
0.0
 20
0.0
 30
0.0
  3
*U25
  1

  0
TEXT
  5
3FA6
330
446D
100
AcDbEntity
  8
标注
100
AcDbText
 10
448.5331378829473
 20
3.868212891439358
 30
0.0
 40
0.7874015748031497
  1
1/4" 
100
AcDbText
  0
TEXT
  5
3FA7
330
446D
100
AcDbEntity
  8
标注
100
AcDbText
 10
451.9452113737608
 20
3.868212891439358
 30
0.0
 40
0.7874015748031497
  1
OVERHANG CUTOUT
100
AcDbText
  0
ENDBLK
  5
3FA9
330
446D
100
AcDbEntity
  8
0
100
AcDbBlockEnd
  0
BLOCK
  5
4699
330
4698
100
AcDbEntity
  8
0
100
AcDbBlockBegin
  2
_Open30
 70
     0
 10
0.0
 20
0.0
 30
0.0
  3
_Open30
  1

  0
LINE
  5
469A
330
4698
100
AcDbEntity
  8
0
  6
ByBlock
 62
     0
370
    -2
100
AcDbLine
 10
-1.0
 20
0.26794919
 30
0.0
 11
0.0
 21
0.0
 31
0.0
  0
LINE
  5
469B
330
4698
100
AcDbEntity
  8
0
  6
ByBlock
 62
     0
370
    -2
100
AcDbLine
 10
0.0
 20
0.0
 30
0.0
 11
-1.0
 21
-0.26794919
 31
0.0
  0
LINE
  5
469C
330
4698
100
AcDbEntity
  8
0
  6
ByBlock
 62
     0
370
    -2
100
AcDbLine
 10
0.0
 20
0.0
 30
0.0
 11
-1.0
 21
0.0
 31
0.0
  0
ENDBLK
  5
469D
330
4698
100
AcDbEntity
  8
0
100
AcDbBlockEnd
  0
BLOCK
  5
4848
330
4847
100
AcDbEntity
  8
0
100
AcDbBlockBegin
  2
*D27
 70
     1
 10
0.0
 20
0.0
 30
0.0
  3
*D27
  1

  0
LINE
  5
4BDB
330
4847
100
AcDbEntity
  8
0
  6
Continuous
 62
     3
370
    13
100
AcDbLine
 10
515.1620209686101
 20
161.7751243604954
 30
0.0
 11
515.1620209686101
 21
151.2428654346278
 31
0.0
  0
LINE
  5
4BDC
330
4847
100
AcDbEntity
  8
0
  6
Continuous
 62
     3
370
    13
100
AcDbLine
 10
536.6186709686067
 20
161.7751243604954
 30
0.0
 11
536.6186709686067
 21
151.2428654346278
 31
0.0
  0
LINE
  5
4BDD
330
4847
100
AcDbEntity
  8
0
  6
Continuous
 62
     3
370
    13
100
AcDbLine
 10
515.8120209686101
 20
151.5628654346278
 30
0.0
 11
524.1339570797196
 21
151.5628654346278
 31
0.0
  0
LINE
  5
4BDE
330
4847
100
AcDbEntity
  8
0
  6
Continuous
 62
     3
370
    13
100
AcDbLine
 10
535.9686709686067
 20
151.5628654346278
 30
0.0
 11
527.6467348574973
 21
151.5628654346278
 31
0.0
  0
SOLID
  5
4BDF
330
4847
100
AcDbEntity
  8
0
 62
     3
100
AcDbTrace
 10
515.8120209686101
 20
151.6711987679611
 30
0.0
 11
515.8120209686101
 21
151.4545321012945
 31
0.0
 12
515.1620209686101
 22
151.5628654346278
 32
0.0
 13
515.1620209686101
 23
151.5628654346278
 33
0.0
  0
SOLID
  5
4BE0
330
4847
100
AcDbEntity
  8
0
 62
     3
100
AcDbTrace
 10
535.9686709686067
 20
151.6711987679611
 30
0.0
 11
535.9686709686067
 21
151.4545321012945
 31
0.0
 12
536.6186709686067
 22
151.5628654346278
 32
0.0
 13
536.6186709686067
 23
151.5628654346278
 33
0.0
  0
MTEXT
  5
4BE1
330
4847
100
AcDbEntity
  8
0
 62
     3
100
AcDbMText
 10
525.8903459686083
 20
151.5628654346278
 30
0.0
 40
0.65
 41
0.0
 71
     5
 72
     1
  1
\A1;21 1/2"
 73
     1
 44
1.0
1001
ACAD
1000
MTEXTBEGIN
1070
    73
1070
     1
1070
    44
1040
1.0
1070
    74
1070
     0
1000
MTEXTEND
  0
POINT
  5
4BE2
330
4847
100
AcDbEntity
  8
DEFPOINTS
 62
     0
100
AcDbPoint
 10
515.1620209686101
 20
162.6551243604954
 30
0.0
  0
POINT
  5
4BE3
330
4847
100
AcDbEntity
  8
DEFPOINTS
 62
     0
100
AcDbPoint
 10
536.6186709686067
 20
162.6551243604954
 30
0.0
  0
POINT
  5
4BE4
330
4847
100
AcDbEntity
  8
DEFPOINTS
 62
     0
100
AcDbPoint
 10
536.6186709686067
 20
151.5628654346278
 30
0.0
  0
ENDBLK
  5
4849
330
4847
100
AcDbEntity
  8
0
100
AcDbBlockEnd
  0
BLOCK
  5
4856
330
4855
100
AcDbEntity
  8
0
100
AcDbBlockBegin
  2
*D28
 70
     1
 10
0.0
 20
0.0
 30
0.0
  3
*D28
  1

  0
LINE
  5
4BE5
330
4855
100
AcDbEntity
  8
0
  6
Continuous
 62
     3
370
    13
100
AcDbLine
 10
514.1974559686101
 20
161.7751243604954
 30
0.0
 11
514.1974559686101
 21
149.5375210957591
 31
0.0
  0
LINE
  5
4BE6
330
4855
100
AcDbEntity
  8
0
  6
Continuous
 62
     3
370
    13
100
AcDbLine
 10
537.5832359686063
 20
161.7751243604954
 30
0.0
 11
537.5832359686063
 21
149.5375210957591
 31
0.0
  0
LINE
  5
4BE7
330
4855
100
AcDbEntity
  8
0
  6
Continuous
 62
     3
370
    13
100
AcDbLine
 10
514.8474559686101
 20
149.8575210957591
 30
0.0
 11
524.1339570797191
 21
149.8575210957591
 31
0.0
  0
LINE
  5
4BE8
330
4855
100
AcDbEntity
  8
0
  6
Continuous
 62
     3
370
    13
100
AcDbLine
 10
536.9332359686064
 20
149.8575210957591
 30
0.0
 11
527.646734857497
 21
149.8575210957591
 31
0.0
  0
SOLID
  5
4BE9
330
4855
100
AcDbEntity
  8
0
 62
     3
100
AcDbTrace
 10
514.8474559686101
 20
149.9658544290924
 30
0.0
 11
514.8474559686101
 21
149.7491877624258
 31
0.0
 12
514.1974559686101
 22
149.8575210957591
 32
0.0
 13
514.1974559686101
 23
149.8575210957591
 33
0.0
  0
SOLID
  5
4BEA
330
4855
100
AcDbEntity
  8
0
 62
     3
100
AcDbTrace
 10
536.9332359686064
 20
149.9658544290924
 30
0.0
 11
536.9332359686064
 21
149.7491877624258
 31
0.0
 12
537.5832359686063
 22
149.8575210957591
 32
0.0
 13
537.5832359686063
 23
149.8575210957591
 33
0.0
  0
MTEXT
  5
4BEB
330
4855
100
AcDbEntity
  8
0
 62
     3
100
AcDbMText
 10
525.8903459686081
 20
149.8575210957591
 30
0.0
 40
0.65
 41
0.0
 71
     5
 72
     1
  1
\A1;23 3/8"
 73
     1
 44
1.0
1001
ACAD
1000
MTEXTBEGIN
1070
    73
1070
     1
1070
    44
1040
1.0
1070
    74
1070
     0
1000
MTEXTEND
  0
POINT
  5
4BEC
330
4855
100
AcDbEntity
  8
DEFPOINTS
 62
     0
100
AcDbPoint
 10
514.1974559686101
 20
162.6551243604954
 30
0.0
  0
POINT
  5
4BED
330
4855
100
AcDbEntity
  8
DEFPOINTS
 62
     0
100
AcDbPoint
 10
537.5832359686063
 20
162.6551243604954
 30
0.0
  0
POINT
  5
4BEE
330
4855
100
AcDbEntity
  8
DEFPOINTS
 62
     0
100
AcDbPoint
 10
537.5832359686063
 20
149.8575210957591
 30
0.0
  0
ENDBLK
  5
4857
330
4855
100
AcDbEntity
  8
0
100
AcDbBlockEnd
  0
BLOCK
  5
4864
330
4863
100
AcDbEntity
  8
0
100
AcDbBlockBegin
  2
*D29
 70
     1
 10
0.0
 20
0.0
 30
0.0
  3
*D29
  1

  0
LINE
  5
4BEF
330
4863
100
AcDbEntity
  8
0
  6
Continuous
 62
     3
370
    13
100
AcDbLine
 10
526.7703459691722
 20
154.6826993605061
 30
0.0
 11
539.7498456205612
 21
154.6826993605061
 31
0.0
  0
LINE
  5
4BF0
330
4863
100
AcDbEntity
  8
0
  6
Continuous
 62
     3
370
    13
100
AcDbLine
 10
526.770345968612
 20
170.6275493604992
 30
0.0
 11
539.7498456205612
 21
170.6275493604992
 31
0.0
  0
LINE
  5
4BF1
330
4863
100
AcDbEntity
  8
0
  6
Continuous
 62
     3
370
    13
100
AcDbLine
 10
539.4298456205611
 20
155.3326993605061
 30
0.0
 11
539.4298456205611
 21
161.8520688049471
 31
0.0
  0
LINE
  5
4BF2
330
4863
100
AcDbEntity
  8
0
  6
Continuous
 62
     3
370
    13
100
AcDbLine
 10
539.4298456205611
 20
169.9775493604992
 30
0.0
 11
539.4298456205611
 21
163.4581799160582
 31
0.0
  0
SOLID
  5
4BF3
330
4863
100
AcDbEntity
  8
0
 62
     3
100
AcDbTrace
 10
539.3215122872277
 20
155.3326993605061
 30
0.0
 11
539.5381789538945
 21
155.3326993605061
 31
0.0
 12
539.4298456205611
 22
154.6826993605061
 32
0.0
 13
539.4298456205611
 23
154.6826993605061
 33
0.0
  0
SOLID
  5
4BF4
330
4863
100
AcDbEntity
  8
0
 62
     3
100
AcDbTrace
 10
539.3215122872277
 20
169.9775493604992
 30
0.0
 11
539.5381789538945
 21
169.9775493604992
 31
0.0
 12
539.4298456205611
 22
170.6275493604992
 32
0.0
 13
539.4298456205611
 23
170.6275493604992
 33
0.0
  0
MTEXT
  5
4BF5
330
4863
100
AcDbEntity
  8
0
 62
     3
100
AcDbMText
 10
539.4298456205611
 20
162.6551243605026
 30
0.0
 40
0.65
 41
0.0
 71
     5
 72
     1
  1
\A1;16"
 11
0.0000000000000001
 21
1.0
 31
0.0
 73
     1
 44
1.0
1001
ACAD
1000
MTEXTBEGIN
1070
    73
1070
     1
1070
    44
1040
1.0
1070
    74
1070
     0
1000
MTEXTEND
  0
POINT
  5
4BF6
330
4863
100
AcDbEntity
  8
DEFPOINTS
 62
     0
100
AcDbPoint
 10
525.8903459691722
 20
154.6826993605061
 30
0.0
  0
POINT
  5
4BF7
330
4863
100
AcDbEntity
  8
DEFPOINTS
 62
     0
100
AcDbPoint
 10
525.890345968612
 20
170.6275493604992
 30
0.0
  0
POINT
  5
4BF8
330
4863
100
AcDbEntity
  8
DEFPOINTS
 62
     0
100
AcDbPoint
 10
539.4298456205611
 20
170.6275493604992
 30
0.0
  0
ENDBLK
  5
4865
330
4863
100
AcDbEntity
  8
0
100
AcDbBlockEnd
  0
BLOCK
  5
4872
330
4871
100
AcDbEntity
  8
0
100
AcDbBlockBegin
  2
*D30
 70
     1
 10
0.0
 20
0.0
 30
0.0
  3
*D30
  1

  0
LINE
  5
4BF9
330
4871
100
AcDbEntity
  8
0
  6
Continuous
 62
     3
370
    13
100
AcDbLine
 10
526.7703459691722
 20
153.7575043605061
 30
0.0
 11
541.2693633406436
 21
153.7575043605061
 31
0.0
  0
LINE
  5
4BFA
330
4871
100
AcDbEntity
  8
0
  6
Continuous
 62
     3
370
    13
100
AcDbLine
 10
526.770345968612
 20
171.5527443604992
 30
0.0
 11
541.2693633406436
 21
171.5527443604992
 31
0.0
  0
LINE
  5
4BFB
330
4871
100
AcDbEntity
  8
0
  6
Continuous
 62
     3
370
    13
100
AcDbLine
 10
540.9493633406436
 20
154.4075043605061
 30
0.0
 11
540.9493633406436
 21
160.9276243605026
 31
0.0
  0
LINE
  5
4BFC
330
4871
100
AcDbEntity
  8
0
  6
Continuous
 62
     3
370
    13
100
AcDbLine
 10
540.9493633406436
 20
170.9027443604992
 30
0.0
 11
540.9493633406436
 21
164.3826243605025
 31
0.0
  0
SOLID
  5
4BFD
330
4871
100
AcDbEntity
  8
0
 62
     3
100
AcDbTrace
 10
540.8410300073102
 20
154.4075043605061
 30
0.0
 11
541.0576966739768
 21
154.4075043605061
 31
0.0
 12
540.9493633406436
 22
153.7575043605061
 32
0.0
 13
540.9493633406436
 23
153.7575043605061
 33
0.0
  0
SOLID
  5
4BFE
330
4871
100
AcDbEntity
  8
0
 62
     3
100
AcDbTrace
 10
540.8410300073102
 20
170.9027443604992
 30
0.0
 11
541.0576966739768
 21
170.9027443604992
 31
0.0
 12
540.9493633406436
 22
171.5527443604992
 32
0.0
 13
540.9493633406436
 23
171.5527443604992
 33
0.0
  0
MTEXT
  5
4BFF
330
4871
100
AcDbEntity
  8
0
 62
     3
100
AcDbMText
 10
540.9493633406436
 20
162.6551243605026
 30
0.0
 40
0.65
 41
0.0
 71
     5
 72
     1
  1
\A1;17 3/4"
 11
0.0000000000000001
 21
1.0
 31
0.0
 73
     1
 44
1.0
1001
ACAD
1000
MTEXTBEGIN
1070
    73
1070
     1
1070
    44
1040
1.0
1070
    74
1070
     0
1000
MTEXTEND
  0
POINT
  5
4C00
330
4871
100
AcDbEntity
  8
DEFPOINTS
 62
     0
100
AcDbPoint
 10
525.8903459691722
 20
153.7575043605061
 30
0.0
  0
POINT
  5
4C01
330
4871
100
AcDbEntity
  8
DEFPOINTS
 62
     0
100
AcDbPoint
 10
525.890345968612
 20
171.5527443604992
 30
0.0
  0
POINT
  5
4C02
330
4871
100
AcDbEntity
  8
DEFPOINTS
 62
     0
100
AcDbPoint
 10
540.9493633406436
 20
171.5527443604992
 30
0.0
  0
ENDBLK
  5
4873
330
4871
100
AcDbEntity
  8
0
100
AcDbBlockEnd
  0
BLOCK
  5
4880
330
487F
100
AcDbEntity
  8
0
100
AcDbBlockBegin
  2
*D31
 70
     1
 10
0.0
 20
0.0
 30
0.0
  3
*D31
  1

  0
LINE
  5
4C03
330
487F
100
AcDbEntity
  8
0
  6
Continuous
 62
     3
370
    13
100
AcDbLine
 10
538.4829209686097
 20
185.584734990396
 30
0.0
 11
539.615039465762
 21
185.584734990396
 31
0.0
  0
LINE
  5
4C04
330
487F
100
AcDbEntity
  8
0
  6
Continuous
 62
     3
370
    13
100
AcDbLine
 10
537.9672443072871
 20
180.0729311028881
 30
0.0
 11
539.615039465762
 21
180.0729311028881
 31
0.0
  0
LINE
  5
4C05
330
487F
100
AcDbEntity
  8
0
  6
Continuous
 62
     3
370
    13
100
AcDbLine
 10
539.295039465762
 20
184.934734990396
 30
0.0
 11
539.295039465762
 21
184.3504997133088
 31
0.0
  0
LINE
  5
4C06
330
487F
100
AcDbEntity
  8
0
  6
Continuous
 62
     3
370
    13
100
AcDbLine
 10
539.295039465762
 20
180.7229311028881
 30
0.0
 11
539.295039465762
 21
181.3071663799754
 31
0.0
  0
SOLID
  5
4C07
330
487F
100
AcDbEntity
  8
0
 62
     3
100
AcDbTrace
 10
539.1867061324286
 20
184.934734990396
 30
0.0
 11
539.4033727990953
 21
184.934734990396
 31
0.0
 12
539.295039465762
 22
185.584734990396
 32
0.0
 13
539.295039465762
 23
185.584734990396
 33
0.0
  0
SOLID
  5
4C08
330
487F
100
AcDbEntity
  8
0
 62
     3
100
AcDbTrace
 10
539.1867061324286
 20
180.7229311028881
 30
0.0
 11
539.4033727990953
 21
180.7229311028881
 31
0.0
 12
539.295039465762
 22
180.0729311028881
 32
0.0
 13
539.295039465762
 23
180.0729311028881
 33
0.0
  0
MTEXT
  5
4C09
330
487F
100
AcDbEntity
  8
0
 62
     3
100
AcDbMText
 10
539.295039465762
 20
182.8288330466422
 30
0.0
 40
0.65
 41
0.0
 71
     5
 72
     1
  1
\A1;5 1/2"
 11
0.0000000000000001
 21
1.0
 31
0.0
 73
     1
 44
1.0
1001
ACAD
1000
MTEXTBEGIN
1070
    73
1070
     1
1070
    44
1040
1.0
1070
    74
1070
     0
1000
MTEXTEND
  0
POINT
  5
4C0A
330
487F
100
AcDbEntity
  8
DEFPOINTS
 62
     0
100
AcDbPoint
 10
537.6029209686097
 20
185.584734990396
 30
0.0
  0
POINT
  5
4C0B
330
487F
100
AcDbEntity
  8
DEFPOINTS
 62
     0
100
AcDbPoint
 10
537.0872443072872
 20
180.0729311028881
 30
0.0
  0
POINT
  5
4C0C
330
487F
100
AcDbEntity
  8
DEFPOINTS
 62
     0
100
AcDbPoint
 10
539.295039465762
 20
180.0729311028881
 30
0.0
  0
ENDBLK
  5
4881
330
487F
100
AcDbEntity
  8
0
100
AcDbBlockEnd
  0
BLOCK
  5
4B1E
330
4B1D
100
AcDbEntity
  8
0
 48
5.0
100
AcDbBlockBegin
  2
GENAXEH
 70
     0
 10
0.0
 20
0.0
 30
0.0
  3
GENAXEH
  1

  0
LINE
  5
4B1F
330
4B1D
100
AcDbEntity
  8
0
100
AcDbLine
 10
-1.0
 20
0.0
 30
0.0
 11
1.0
 21
0.0
 31
0.0
  0
ENDBLK
  5
4B20
330
4B1D
100
AcDbEntity
  8
0
 48
5.0
100
AcDbBlockEnd
  0
BLOCK
  5
4BC0
330
4BBF
100
AcDbEntity
  8
0
100
AcDbBlockBegin
  2
*D33
 70
     1
 10
0.0
 20
0.0
 30
0.0
  3
*D33
  1

  0
LINE
  5
4C0D
330
4BBF
100
AcDbEntity
  8
0
  6
Continuous
 62
     3
370
    13
100
AcDbLine
 10
570.8453083029712
 20
155.5827600955841
 30
0.0
 11
570.8453083029712
 21
149.7694299400397
 31
0.0
  0
LINE
  5
4C0E
330
4BBF
100
AcDbEntity
  8
0
  6
Continuous
 62
     3
370
    13
100
AcDbLine
 10
598.8373783029715
 20
155.5827600955841
 30
0.0
 11
598.8373783029715
 21
149.7694299400397
 31
0.0
  0
LINE
  5
4C0F
330
4BBF
100
AcDbEntity
  8
0
  6
Continuous
 62
     3
370
    13
100
AcDbLine
 10
571.4953083029712
 20
150.0894299400397
 30
0.0
 11
584.009398858527
 21
150.0894299400397
 31
0.0
  0
LINE
  5
4C10
330
4BBF
100
AcDbEntity
  8
0
  6
Continuous
 62
     3
370
    13
100
AcDbLine
 10
598.1873783029715
 20
150.0894299400397
 30
0.0
 11
585.6732877474157
 21
150.0894299400397
 31
0.0
  0
SOLID
  5
4C11
330
4BBF
100
AcDbEntity
  8
0
 62
     3
100
AcDbTrace
 10
571.4953083029712
 20
150.197763273373
 30
0.0
 11
571.4953083029712
 21
149.9810966067064
 31
0.0
 12
570.8453083029712
 22
150.0894299400397
 32
0.0
 13
570.8453083029712
 23
150.0894299400397
 33
0.0
  0
SOLID
  5
4C12
330
4BBF
100
AcDbEntity
  8
0
 62
     3
100
AcDbTrace
 10
598.1873783029715
 20
150.197763273373
 30
0.0
 11
598.1873783029715
 21
149.9810966067064
 31
0.0
 12
598.8373783029715
 22
150.0894299400397
 32
0.0
 13
598.8373783029715
 23
150.0894299400397
 33
0.0
  0
MTEXT
  5
4C13
330
4BBF
100
AcDbEntity
  8
0
 62
     3
100
AcDbMText
 10
584.8413433029714
 20
150.0894299400397
 30
0.0
 40
0.65
 41
0.0
 71
     5
 72
     1
  1
\A1;28"
 73
     1
 44
1.0
1001
ACAD
1000
MTEXTBEGIN
1070
    73
1070
     1
1070
    44
1040
1.0
1070
    74
1070
     0
1000
MTEXTEND
  0
POINT
  5
4C14
330
4BBF
100
AcDbEntity
  8
DEFPOINTS
 62
     0
100
AcDbPoint
 10
570.8453083029712
 20
156.4627600955841
 30
0.0
  0
POINT
  5
4C15
330
4BBF
100
AcDbEntity
  8
DEFPOINTS
 62
     0
100
AcDbPoint
 10
598.8373783029715
 20
156.4627600955841
 30
0.0
  0
POINT
  5
4C16
330
4BBF
100
AcDbEntity
  8
DEFPOINTS
 62
     0
100
AcDbPoint
 10
598.8373783029715
 20
150.0894299400397
 30
0.0
  0
ENDBLK
  5
4BC1
330
4BBF
100
AcDbEntity
  8
0
100
AcDbBlockEnd
  0
BLOCK
  5
4BCE
330
4BCD
100
AcDbEntity
  8
0
100
AcDbBlockBegin
  2
*D34
 70
     1
 10
0.0
 20
0.0
 30
0.0
  3
*D34
  1

  0
LINE
  5
4D2A
330
4BCD
100
AcDbEntity
  8
0
  6
Continuous
 62
     3
370
    13
100
AcDbLine
 10
569.8610583029699
 20
155.5827600955877
 30
0.0
 11
569.8610583029699
 21
147.9168609550064
 31
0.0
  0
LINE
  5
4D2B
330
4BCD
100
AcDbEntity
  8
0
  6
Continuous
 62
     3
370
    13
100
AcDbLine
 10
599.8216283029726
 20
155.5827600955877
 30
0.0
 11
599.8216283029726
 21
147.9168609550064
 31
0.0
  0
LINE
  5
4D2C
330
4BCD
100
AcDbEntity
  8
0
  6
Continuous
 62
     3
370
    13
100
AcDbLine
 10
570.5110583029699
 20
148.2368609550064
 30
0.0
 11
584.013009969638
 21
148.2368609550064
 31
0.0
  0
LINE
  5
4D2D
330
4BCD
100
AcDbEntity
  8
0
  6
Continuous
 62
     3
370
    13
100
AcDbLine
 10
599.1716283029727
 20
148.2368609550064
 30
0.0
 11
585.6696766363048
 21
148.2368609550064
 31
0.0
  0
SOLID
  5
4D2E
330
4BCD
100
AcDbEntity
  8
0
 62
     3
100
AcDbTrace
 10
570.5110583029699
 20
148.3451942883396
 30
0.0
 11
570.5110583029699
 21
148.1285276216731
 31
0.0
 12
569.8610583029699
 22
148.2368609550064
 32
0.0
 13
569.8610583029699
 23
148.2368609550064
 33
0.0
  0
SOLID
  5
4D2F
330
4BCD
100
AcDbEntity
  8
0
 62
     3
100
AcDbTrace
 10
599.1716283029727
 20
148.3451942883396
 30
0.0
 11
599.1716283029727
 21
148.1285276216731
 31
0.0
 12
599.8216283029726
 22
148.2368609550064
 32
0.0
 13
599.8216283029726
 23
148.2368609550064
 33
0.0
  0
MTEXT
  5
4D30
330
4BCD
100
AcDbEntity
  8
0
 62
     3
100
AcDbMText
 10
584.8413433029714
 20
148.2368609550064
 30
0.0
 40
0.65
 41
0.0
 71
     5
 72
     1
  1
\A1;30"
 73
     1
 44
1.0
1001
ACAD
1000
MTEXTBEGIN
1070
    73
1070
     1
1070
    44
1040
1.0
1070
    74
1070
     0
1000
MTEXTEND
  0
POINT
  5
4D31
330
4BCD
100
AcDbEntity
  8
DEFPOINTS
 62
     0
100
AcDbPoint
 10
569.8610583029699
 20
156.4627600955878
 30
0.0
  0
POINT
  5
4D32
330
4BCD
100
AcDbEntity
  8
DEFPOINTS
 62
     0
100
AcDbPoint
 10
599.8216283029726
 20
156.4627600955878
 30
0.0
  0
POINT
  5
4D33
330
4BCD
100
AcDbEntity
  8
DEFPOINTS
 62
     0
100
AcDbPoint
 10
599.8216283029726
 20
148.2368609550064
 30
0.0
  0
ENDBLK
  5
4BCF
330
4BCD
100
AcDbEntity
  8
0
100
AcDbBlockEnd
  0
BLOCK
  5
4C23
330
4C22
100
AcDbEntity
  8
0
100
AcDbBlockBegin
  2
*D35
 70
     1
 10
0.0
 20
0.0
 30
0.0
  3
*D35
  1

  0
LINE
  5
4C25
330
4C22
100
AcDbEntity
  8
0
  6
Continuous
 62
     3
370
    13
100
AcDbLine
 10
595.7803783029698
 20
152.5257600955824
 30
0.0
 11
602.4015966024534
 21
152.5257600955824
 31
0.0
  0
LINE
  5
4C26
330
4C22
100
AcDbEntity
  8
0
  6
Continuous
 62
     3
370
    13
100
AcDbLine
 10
595.7803783029698
 20
168.6674600955898
 30
0.0
 11
602.4015966024534
 21
168.6674600955898
 31
0.0
  0
LINE
  5
4C27
330
4C22
100
AcDbEntity
  8
0
  6
Continuous
 62
     3
370
    13
100
AcDbLine
 10
602.0815966024533
 20
153.1757600955824
 30
0.0
 11
602.0815966024533
 21
158.8691100955861
 31
0.0
  0
LINE
  5
4C28
330
4C22
100
AcDbEntity
  8
0
  6
Continuous
 62
     3
370
    13
100
AcDbLine
 10
602.0815966024533
 20
168.0174600955898
 30
0.0
 11
602.0815966024533
 21
162.3241100955861
 31
0.0
  0
SOLID
  5
4C29
330
4C22
100
AcDbEntity
  8
0
 62
     3
100
AcDbTrace
 10
601.97326326912
 20
153.1757600955824
 30
0.0
 11
602.1899299357867
 21
153.1757600955824
 31
0.0
 12
602.0815966024533
 22
152.5257600955824
 32
0.0
 13
602.0815966024533
 23
152.5257600955824
 33
0.0
  0
SOLID
  5
4C2A
330
4C22
100
AcDbEntity
  8
0
 62
     3
100
AcDbTrace
 10
601.97326326912
 20
168.0174600955898
 30
0.0
 11
602.1899299357867
 21
168.0174600955898
 31
0.0
 12
602.0815966024533
 22
168.6674600955898
 32
0.0
 13
602.0815966024533
 23
168.6674600955898
 33
0.0
  0
MTEXT
  5
4C2B
330
4C22
100
AcDbEntity
  8
0
 62
     3
100
AcDbMText
 10
602.0815966024533
 20
160.5966100955862
 30
0.0
 40
0.65
 41
0.0
 71
     5
 72
     1
  1
\A1;16 1/8"
 11
0.0000000000000001
 21
1.0
 31
0.0
 73
     1
 44
1.0
1001
ACAD
1000
MTEXTBEGIN
1070
    73
1070
     1
1070
    44
1040
1.0
1070
    74
1070
     0
1000
MTEXTEND
  0
POINT
  5
4C2C
330
4C22
100
AcDbEntity
  8
DEFPOINTS
 62
     0
100
AcDbPoint
 10
594.9003783029698
 20
152.5257600955824
 30
0.0
  0
POINT
  5
4C2D
330
4C22
100
AcDbEntity
  8
DEFPOINTS
 62
     0
100
AcDbPoint
 10
594.9003783029698
 20
168.6674600955898
 30
0.0
  0
POINT
  5
4C2E
330
4C22
100
AcDbEntity
  8
DEFPOINTS
 62
     0
100
AcDbPoint
 10
602.0815966024533
 20
168.6674600955898
 30
0.0
  0
ENDBLK
  5
4C24
330
4C22
100
AcDbEntity
  8
0
100
AcDbBlockEnd
  0
BLOCK
  5
4C31
330
4C30
100
AcDbEntity
  8
0
100
AcDbBlockBegin
  2
*D36
 70
     1
 10
0.0
 20
0.0
 30
0.0
  3
*D36
  1

  0
LINE
  5
4C33
330
4C30
100
AcDbEntity
  8
0
  6
Continuous
 62
     3
370
    13
100
AcDbLine
 10
595.7803783029734
 20
151.5415100955883
 30
0.0
 11
603.9278928909359
 21
151.5415100955883
 31
0.0
  0
LINE
  5
4C34
330
4C30
100
AcDbEntity
  8
0
  6
Continuous
 62
     3
370
    13
100
AcDbLine
 10
595.7803783029734
 20
169.6517100955839
 30
0.0
 11
603.9278928909359
 21
169.6517100955839
 31
0.0
  0
LINE
  5
4C35
330
4C30
100
AcDbEntity
  8
0
  6
Continuous
 62
     3
370
    13
100
AcDbLine
 10
603.6078928909359
 20
152.1915100955884
 30
0.0
 11
603.6078928909359
 21
158.8691100955861
 31
0.0
  0
LINE
  5
4C36
330
4C30
100
AcDbEntity
  8
0
  6
Continuous
 62
     3
370
    13
100
AcDbLine
 10
603.6078928909359
 20
169.0017100955839
 30
0.0
 11
603.6078928909359
 21
162.3241100955861
 31
0.0
  0
SOLID
  5
4C37
330
4C30
100
AcDbEntity
  8
0
 62
     3
100
AcDbTrace
 10
603.4995595576027
 20
152.1915100955884
 30
0.0
 11
603.7162262242692
 21
152.1915100955884
 31
0.0
 12
603.6078928909359
 22
151.5415100955883
 32
0.0
 13
603.6078928909359
 23
151.5415100955883
 33
0.0
  0
SOLID
  5
4C38
330
4C30
100
AcDbEntity
  8
0
 62
     3
100
AcDbTrace
 10
603.4995595576027
 20
169.0017100955839
 30
0.0
 11
603.7162262242692
 21
169.0017100955839
 31
0.0
 12
603.6078928909359
 22
169.6517100955839
 32
0.0
 13
603.6078928909359
 23
169.6517100955839
 33
0.0
  0
MTEXT
  5
4C39
330
4C30
100
AcDbEntity
  8
0
 62
     3
100
AcDbMText
 10
603.6078928909359
 20
160.5966100955862
 30
0.0
 40
0.65
 41
0.0
 71
     5
 72
     1
  1
\A1;18 1/8"
 11
0.0000000000000001
 21
1.0
 31
0.0
 73
     1
 44
1.0
1001
ACAD
1000
MTEXTBEGIN
1070
    73
1070
     1
1070
    44
1040
1.0
1070
    74
1070
     0
1000
MTEXTEND
  0
POINT
  5
4C3A
330
4C30
100
AcDbEntity
  8
DEFPOINTS
 62
     0
100
AcDbPoint
 10
594.9003783029734
 20
151.5415100955883
 30
0.0
  0
POINT
  5
4C3B
330
4C30
100
AcDbEntity
  8
DEFPOINTS
 62
     0
100
AcDbPoint
 10
594.9003783029734
 20
169.6517100955839
 30
0.0
  0
POINT
  5
4C3C
330
4C30
100
AcDbEntity
  8
DEFPOINTS
 62
     0
100
AcDbPoint
 10
603.6078928909359
 20
169.6517100955839
 30
0.0
  0
ENDBLK
  5
4C32
330
4C30
100
AcDbEntity
  8
0
100
AcDbBlockEnd
  0
BLOCK
  5
4C3F
330
4C3E
100
AcDbEntity
  8
0
100
AcDbBlockBegin
  2
*D37
 70
     1
 10
0.0
 20
0.0
 30
0.0
  3
*D37
  1

  0
LINE
  5
4C41
330
4C3E
100
AcDbEntity
  8
0
  6
Continuous
 62
     3
370
    13
100
AcDbLine
 10
600.7651588172006
 20
185.6195213068913
 30
0.0
 11
602.2699370568947
 21
185.6195213068913
 31
0.0
  0
LINE
  5
4C42
330
4C3E
100
AcDbEntity
  8
0
  6
Continuous
 62
     3
370
    13
100
AcDbLine
 10
600.7651588172006
 20
180.1195213068913
 30
0.0
 11
602.2699370568947
 21
180.1195213068913
 31
0.0
  0
LINE
  5
4C43
330
4C3E
100
AcDbEntity
  8
0
  6
Continuous
 62
     3
370
    13
100
AcDbLine
 10
601.9499370568945
 20
184.9695213068913
 30
0.0
 11
601.9499370568945
 21
184.391187973558
 31
0.0
  0
LINE
  5
4C44
330
4C3E
100
AcDbEntity
  8
0
  6
Continuous
 62
     3
370
    13
100
AcDbLine
 10
601.9499370568945
 20
180.7695213068913
 30
0.0
 11
601.9499370568945
 21
181.3478546402246
 31
0.0
  0
SOLID
  5
4C45
330
4C3E
100
AcDbEntity
  8
0
 62
     3
100
AcDbTrace
 10
601.8416037235612
 20
184.9695213068913
 30
0.0
 11
602.058270390228
 21
184.9695213068913
 31
0.0
 12
601.9499370568945
 22
185.6195213068913
 32
0.0
 13
601.9499370568945
 23
185.6195213068913
 33
0.0
  0
SOLID
  5
4C46
330
4C3E
100
AcDbEntity
  8
0
 62
     3
100
AcDbTrace
 10
601.8416037235612
 20
180.7695213068913
 30
0.0
 11
602.058270390228
 21
180.7695213068913
 31
0.0
 12
601.9499370568945
 22
180.1195213068913
 32
0.0
 13
601.9499370568945
 23
180.1195213068913
 33
0.0
  0
MTEXT
  5
4C47
330
4C3E
100
AcDbEntity
  8
0
 62
     3
100
AcDbMText
 10
601.9499370568945
 20
182.8695213068914
 30
0.0
 40
0.65
 41
0.0
 71
     5
 72
     1
  1
\A1;5 1/2"
 11
0.0000000000000001
 21
1.0
 31
0.0
 73
     1
 44
1.0
1001
ACAD
1000
MTEXTBEGIN
1070
    73
1070
     1
1070
    44
1040
1.0
1070
    74
1070
     0
1000
MTEXTEND
  0
POINT
  5
4C48
330
4C3E
100
AcDbEntity
  8
DEFPOINTS
 62
     0
100
AcDbPoint
 10
599.8851588172006
 20
185.6195213068913
 30
0.0
  0
POINT
  5
4C49
330
4C3E
100
AcDbEntity
  8
DEFPOINTS
 62
     0
100
AcDbPoint
 10
599.8851588172006
 20
180.1195213068913
 30
0.0
  0
POINT
  5
4C4A
330
4C3E
100
AcDbEntity
  8
DEFPOINTS
 62
     0
100
AcDbPoint
 10
601.9499370568945
 20
180.1195213068913
 30
0.0
  0
ENDBLK
  5
4C40
330
4C3E
100
AcDbEntity
  8
0
100
AcDbBlockEnd
  0
BLOCK
  5
4F2F
330
4F2E
100
AcDbEntity
  8
0
100
AcDbBlockBegin
  2
*D38
 70
     1
 10
0.0
 20
0.0
 30
0.0
  3
*D38
  1

  0
LINE
  5
4F31
330
4F2E
100
AcDbEntity
  8
0
  6
Continuous
 62
     3
370
    13
100
AcDbLine
 10
637.7239743344002
 20
159.279779478603
 30
0.0
 11
637.7239743344002
 21
147.5870487193744
 31
0.0
  0
LINE
  5
4F32
330
4F2E
100
AcDbEntity
  8
0
  6
Continuous
 62
     3
370
    13
100
AcDbLine
 10
653.4719743344035
 20
159.279779478603
 30
0.0
 11
653.4719743344035
 21
147.5870487193744
 31
0.0
  0
LINE
  5
4F33
330
4F2E
100
AcDbEntity
  8
0
  6
Continuous
 62
     3
370
    13
100
AcDbLine
 10
638.3739743344002
 20
147.9070487193744
 30
0.0
 11
643.8704743344018
 21
147.9070487193744
 31
0.0
  0
LINE
  5
4F34
330
4F2E
100
AcDbEntity
  8
0
  6
Continuous
 62
     3
370
    13
100
AcDbLine
 10
652.8219743344035
 20
147.9070487193744
 30
0.0
 11
647.3254743344019
 21
147.9070487193744
 31
0.0
  0
SOLID
  5
4F35
330
4F2E
100
AcDbEntity
  8
0
 62
     3
100
AcDbTrace
 10
638.3739743344002
 20
148.0153820527077
 30
0.0
 11
638.3739743344002
 21
147.7987153860411
 31
0.0
 12
637.7239743344002
 22
147.9070487193744
 32
0.0
 13
637.7239743344002
 23
147.9070487193744
 33
0.0
  0
SOLID
  5
4F36
330
4F2E
100
AcDbEntity
  8
0
 62
     3
100
AcDbTrace
 10
652.8219743344035
 20
148.0153820527077
 30
0.0
 11
652.8219743344035
 21
147.7987153860411
 31
0.0
 12
653.4719743344035
 22
147.9070487193744
 32
0.0
 13
653.4719743344035
 23
147.9070487193744
 33
0.0
  0
MTEXT
  5
4F37
330
4F2E
100
AcDbEntity
  8
0
 62
     3
100
AcDbMText
 10
645.5979743344019
 20
147.9070487193744
 30
0.0
 40
0.65
 41
0.0
 71
     5
 72
     1
  1
\A1;15 3/4"
 73
     1
 44
1.0
1001
ACAD
1000
MTEXTBEGIN
1070
    73
1070
     1
1070
    44
1040
1.0
1070
    74
1070
     0
1000
MTEXTEND
  0
POINT
  5
4F38
330
4F2E
100
AcDbEntity
  8
DEFPOINTS
 62
     0
100
AcDbPoint
 10
637.7239743344002
 20
160.159779478603
 30
0.0
  0
POINT
  5
4F39
330
4F2E
100
AcDbEntity
  8
DEFPOINTS
 62
     0
100
AcDbPoint
 10
653.4719743344035
 20
160.159779478603
 30
0.0
  0
POINT
  5
4F3A
330
4F2E
100
AcDbEntity
  8
DEFPOINTS
 62
     0
100
AcDbPoint
 10
653.4719743344035
 20
147.9070487193744
 30
0.0
  0
ENDBLK
  5
4F30
330
4F2E
100
AcDbEntity
  8
0
100
AcDbBlockEnd
  0
BLOCK
  5
4F3D
330
4F3C
100
AcDbEntity
  8
0
100
AcDbBlockBegin
  2
*D39
 70
     1
 10
0.0
 20
0.0
 30
0.0
  3
*D39
  1

  0
LINE
  5
4F3F
330
4F3C
100
AcDbEntity
  8
0
  6
Continuous
 62
     3
370
    13
100
AcDbLine
 10
654.7396883344036
 20
158.1774194786022
 30
0.0
 11
654.7396883344036
 21
147.5870487193744
 31
0.0
  0
LINE
  5
4F40
330
4F3C
100
AcDbEntity
  8
0
  6
Continuous
 62
     3
370
    13
100
AcDbLine
 10
667.7317883343985
 20
158.1774194786022
 30
0.0
 11
667.7317883343985
 21
147.5870487193744
 31
0.0
  0
LINE
  5
4F41
330
4F3C
100
AcDbEntity
  8
0
  6
Continuous
 62
     3
370
    13
100
AcDbLine
 10
655.3896883344036
 20
147.9070487193744
 30
0.0
 11
660.4326827788455
 21
147.9070487193744
 31
0.0
  0
LINE
  5
4F42
330
4F3C
100
AcDbEntity
  8
0
  6
Continuous
 62
     3
370
    13
100
AcDbLine
 10
667.0817883343985
 20
147.9070487193744
 30
0.0
 11
662.0387938899567
 21
147.9070487193744
 31
0.0
  0
SOLID
  5
4F43
330
4F3C
100
AcDbEntity
  8
0
 62
     3
100
AcDbTrace
 10
655.3896883344036
 20
148.0153820527077
 30
0.0
 11
655.3896883344036
 21
147.7987153860411
 31
0.0
 12
654.7396883344036
 22
147.9070487193744
 32
0.0
 13
654.7396883344036
 23
147.9070487193744
 33
0.0
  0
SOLID
  5
4F44
330
4F3C
100
AcDbEntity
  8
0
 62
     3
100
AcDbTrace
 10
667.0817883343985
 20
148.0153820527077
 30
0.0
 11
667.0817883343985
 21
147.7987153860411
 31
0.0
 12
667.7317883343985
 22
147.9070487193744
 32
0.0
 13
667.7317883343985
 23
147.9070487193744
 33
0.0
  0
MTEXT
  5
4F45
330
4F3C
100
AcDbEntity
  8
0
 62
     3
100
AcDbMText
 10
661.2357383344011
 20
147.9070487193744
 30
0.0
 40
0.65
 41
0.0
 71
     5
 72
     1
  1
\A1;13"
 73
     1
 44
1.0
1001
ACAD
1000
MTEXTBEGIN
1070
    73
1070
     1
1070
    44
1040
1.0
1070
    74
1070
     0
1000
MTEXTEND
  0
POINT
  5
4F46
330
4F3C
100
AcDbEntity
  8
DEFPOINTS
 62
     0
100
AcDbPoint
 10
654.7396883344036
 20
159.0574194786022
 30
0.0
  0
POINT
  5
4F47
330
4F3C
100
AcDbEntity
  8
DEFPOINTS
 62
     0
100
AcDbPoint
 10
667.7317883343985
 20
159.0574194786022
 30
0.0
  0
POINT
  5
4F48
330
4F3C
100
AcDbEntity
  8
DEFPOINTS
 62
     0
100
AcDbPoint
 10
667.7317883343985
 20
147.9070487193744
 30
0.0
  0
ENDBLK
  5
4F3E
330
4F3C
100
AcDbEntity
  8
0
100
AcDbBlockEnd
  0
BLOCK
  5
4F4B
330
4F4A
100
AcDbEntity
  8
0
100
AcDbBlockBegin
  2
*D40
 70
     1
 10
0.0
 20
0.0
 30
0.0
  3
*D40
  1

  0
LINE
  5
4F4D
330
4F4A
100
AcDbEntity
  8
0
  6
Continuous
 62
     3
370
    13
100
AcDbLine
 10
636.723976334398
 20
153.4372714786033
 30
0.0
 11
636.723976334398
 21
145.6057083657385
 31
0.0
  0
LINE
  5
4F4E
330
4F4A
100
AcDbEntity
  8
0
  6
Continuous
 62
     3
370
    13
100
AcDbLine
 10
668.7317863344018
 20
153.4372714786033
 30
0.0
 11
668.7317863344018
 21
145.6057083657385
 31
0.0
  0
LINE
  5
4F4F
330
4F4A
100
AcDbEntity
  8
0
  6
Continuous
 62
     3
370
    13
100
AcDbLine
 10
637.3739763343977
 20
145.9257083657385
 30
0.0
 11
651.8995480010666
 21
145.9257083657385
 31
0.0
  0
LINE
  5
4F50
330
4F4A
100
AcDbEntity
  8
0
  6
Continuous
 62
     3
370
    13
100
AcDbLine
 10
668.0817863344017
 20
145.9257083657385
 30
0.0
 11
653.5562146677332
 21
145.9257083657385
 31
0.0
  0
SOLID
  5
4F51
330
4F4A
100
AcDbEntity
  8
0
 62
     3
100
AcDbTrace
 10
637.3739763343977
 20
146.0340416990718
 30
0.0
 11
637.3739763343977
 21
145.8173750324052
 31
0.0
 12
636.723976334398
 22
145.9257083657385
 32
0.0
 13
636.723976334398
 23
145.9257083657385
 33
0.0
  0
SOLID
  5
4F52
330
4F4A
100
AcDbEntity
  8
0
 62
     3
100
AcDbTrace
 10
668.0817863344017
 20
146.0340416990718
 30
0.0
 11
668.0817863344017
 21
145.8173750324052
 31
0.0
 12
668.7317863344018
 22
145.9257083657385
 32
0.0
 13
668.7317863344018
 23
145.9257083657385
 33
0.0
  0
MTEXT
  5
4F53
330
4F4A
100
AcDbEntity
  8
0
 62
     3
100
AcDbMText
 10
652.7278813344
 20
145.9257083657385
 30
0.0
 40
0.65
 41
0.0
 71
     5
 72
     1
  1
\A1;32"
 73
     1
 44
1.0
1001
ACAD
1000
MTEXTBEGIN
1070
    73
1070
     1
1070
    44
1040
1.0
1070
    74
1070
     0
1000
MTEXTEND
  0
POINT
  5
4F54
330
4F4A
100
AcDbEntity
  8
DEFPOINTS
 62
     0
100
AcDbPoint
 10
636.723976334398
 20
154.3172714786033
 30
0.0
  0
POINT
  5
4F55
330
4F4A
100
AcDbEntity
  8
DEFPOINTS
 62
     0
100
AcDbPoint
 10
668.7317863344018
 20
154.3172714786033
 30
0.0
  0
POINT
  5
4F56
330
4F4A
100
AcDbEntity
  8
DEFPOINTS
 62
     0
100
AcDbPoint
 10
668.7317863344018
 20
145.9257083657385
 30
0.0
  0
ENDBLK
  5
4F4C
330
4F4A
100
AcDbEntity
  8
0
100
AcDbBlockEnd
  0
BLOCK
  5
5178
330
5177
100
AcDbEntity
  8
0
100
AcDbBlockBegin
  2
*D41
 70
     1
 10
0.0
 20
0.0
 30
0.0
  3
*D41
  1

  0
LINE
  5
518E
330
5177
100
AcDbEntity
  8
0
  6
Continuous
 62
     3
370
    13
100
AcDbLine
 10
635.7633009589914
 20
185.3934324651927
 30
0.0
 11
634.2585227192972
 21
185.3934324651927
 31
0.0
  0
LINE
  5
518F
330
5177
100
AcDbEntity
  8
0
  6
Continuous
 62
     3
370
    13
100
AcDbLine
 10
635.7633009589914
 20
179.8934324651927
 30
0.0
 11
634.2585227192972
 21
179.8934324651927
 31
0.0
  0
LINE
  5
5190
330
5177
100
AcDbEntity
  8
0
  6
Continuous
 62
     3
370
    13
100
AcDbLine
 10
634.5785227192972
 20
184.7434324651927
 30
0.0
 11
634.5785227192972
 21
184.1650991318594
 31
0.0
  0
LINE
  5
5191
330
5177
100
AcDbEntity
  8
0
  6
Continuous
 62
     3
370
    13
100
AcDbLine
 10
634.5785227192972
 20
180.5434324651927
 30
0.0
 11
634.5785227192972
 21
181.1217657985261
 31
0.0
  0
SOLID
  5
5192
330
5177
100
AcDbEntity
  8
0
 62
     3
100
AcDbTrace
 10
634.470189385964
 20
184.7434324651927
 30
0.0
 11
634.6868560526304
 21
184.7434324651927
 31
0.0
 12
634.5785227192972
 22
185.3934324651927
 32
0.0
 13
634.5785227192972
 23
185.3934324651927
 33
0.0
  0
SOLID
  5
5193
330
5177
100
AcDbEntity
  8
0
 62
     3
100
AcDbTrace
 10
634.470189385964
 20
180.5434324651927
 30
0.0
 11
634.6868560526304
 21
180.5434324651927
 31
0.0
 12
634.5785227192972
 22
179.8934324651927
 32
0.0
 13
634.5785227192972
 23
179.8934324651927
 33
0.0
  0
MTEXT
  5
5194
330
5177
100
AcDbEntity
  8
0
 62
     3
100
AcDbMText
 10
634.5785227192972
 20
182.6434324651928
 30
0.0
 40
0.65
 41
0.0
 71
     5
 72
     1
  1
\A1;5 1/2"
 11
0.0000000000000001
 21
1.0
 31
0.0
 73
     1
 44
1.0
1001
ACAD
1000
MTEXTBEGIN
1070
    73
1070
     1
1070
    44
1040
1.0
1070
    74
1070
     0
1000
MTEXTEND
  0
POINT
  5
5195
330
5177
100
AcDbEntity
  8
DEFPOINTS
 62
     0
100
AcDbPoint
 10
636.6433009589914
 20
185.3934324651927
 30
0.0
  0
POINT
  5
5196
330
5177
100
AcDbEntity
  8
DEFPOINTS
 62
     0
100
AcDbPoint
 10
636.6433009589914
 20
179.8934324651927
 30
0.0
  0
POINT
  5
5197
330
5177
100
AcDbEntity
  8
DEFPOINTS
 62
     0
100
AcDbPoint
 10
634.5785227192972
 20
179.8934324651927
 30
0.0
  0
ENDBLK
  5
5179
330
5177
100
AcDbEntity
  8
0
100
AcDbBlockEnd
  0
BLOCK
  5
519A
330
5199
100
AcDbEntity
  8
0
100
AcDbBlockBegin
  2
*D42
 70
     1
 10
0.0
 20
0.0
 30
0.0
  3
*D42
  1

  0
LINE
  5
519C
330
5199
100
AcDbEntity
  8
0
  6
Continuous
 62
     3
370
    13
100
AcDbLine
 10
669.5311109589867
 20
185.3934324651927
 30
0.0
 11
670.8129175504875
 21
185.3934324651927
 31
0.0
  0
LINE
  5
519D
330
5199
100
AcDbEntity
  8
0
  6
Continuous
 62
     3
370
    13
100
AcDbLine
 10
669.5311109589867
 20
181.3934324651927
 30
0.0
 11
670.8129175504875
 21
181.3934324651927
 31
0.0
  0
LINE
  5
519E
330
5199
100
AcDbEntity
  8
0
  6
Continuous
 62
     3
370
    13
100
AcDbLine
 10
670.4929175504876
 20
184.7434324651927
 30
0.0
 11
670.4929175504876
 21
184.0014880207483
 31
0.0
  0
LINE
  5
519F
330
5199
100
AcDbEntity
  8
0
  6
Continuous
 62
     3
370
    13
100
AcDbLine
 10
670.4929175504876
 20
182.0434324651927
 30
0.0
 11
670.4929175504876
 21
182.7853769096372
 31
0.0
  0
SOLID
  5
51A0
330
5199
100
AcDbEntity
  8
0
 62
     3
100
AcDbTrace
 10
670.3845842171542
 20
184.7434324651927
 30
0.0
 11
670.601250883821
 21
184.7434324651927
 31
0.0
 12
670.4929175504876
 22
185.3934324651927
 32
0.0
 13
670.4929175504876
 23
185.3934324651927
 33
0.0
  0
SOLID
  5
51A1
330
5199
100
AcDbEntity
  8
0
 62
     3
100
AcDbTrace
 10
670.3845842171542
 20
182.0434324651927
 30
0.0
 11
670.601250883821
 21
182.0434324651927
 31
0.0
 12
670.4929175504876
 22
181.3934324651927
 32
0.0
 13
670.4929175504876
 23
181.3934324651927
 33
0.0
  0
MTEXT
  5
51A2
330
5199
100
AcDbEntity
  8
0
 62
     3
100
AcDbMText
 10
670.4929175504876
 20
183.3934324651928
 30
0.0
 40
0.65
 41
0.0
 71
     5
 72
     1
  1
\A1;4"
 11
0.0000000000000001
 21
1.0
 31
0.0
 73
     1
 44
1.0
1001
ACAD
1000
MTEXTBEGIN
1070
    73
1070
     1
1070
    44
1040
1.0
1070
    74
1070
     0
1000
MTEXTEND
  0
POINT
  5
51A3
330
5199
100
AcDbEntity
  8
DEFPOINTS
 62
     0
100
AcDbPoint
 10
668.6511109589869
 20
185.3934324651927
 30
0.0
  0
POINT
  5
51A4
330
5199
100
AcDbEntity
  8
DEFPOINTS
 62
     0
100
AcDbPoint
 10
668.6511109589869
 20
181.3934324651927
 30
0.0
  0
POINT
  5
51A5
330
5199
100
AcDbEntity
  8
DEFPOINTS
 62
     0
100
AcDbPoint
 10
670.4929175504876
 20
181.3934324651927
 30
0.0
  0
ENDBLK
  5
519B
330
5199
100
AcDbEntity
  8
0
100
AcDbBlockEnd
  0
BLOCK
  5
51DC
330
51DB
100
AcDbEntity
  8
0
100
AcDbBlockBegin
  2
*D43
 70
     1
 10
0.0
 20
0.0
 30
0.0
  3
*D43
  1

  0
LINE
  5
51DE
330
51DB
100
AcDbEntity
  8
0
  6
Continuous
 62
     3
370
    13
100
AcDbLine
 10
662.115738334401
 20
150.7897194786029
 30
0.0
 11
670.9786757774602
 21
150.7897194786029
 31
0.0
  0
LINE
  5
51DF
330
51DB
100
AcDbEntity
  8
0
  6
Continuous
 62
     3
370
    13
100
AcDbLine
 10
662.115738334401
 20
167.3251194786034
 30
0.0
 11
670.9786757774602
 21
167.3251194786034
 31
0.0
  0
LINE
  5
51E0
330
51DB
100
AcDbEntity
  8
0
  6
Continuous
 62
     3
370
    13
100
AcDbLine
 10
670.6586757774602
 20
151.4397194786029
 30
0.0
 11
670.6586757774602
 21
157.3299194786031
 31
0.0
  0
LINE
  5
51E1
330
51DB
100
AcDbEntity
  8
0
  6
Continuous
 62
     3
370
    13
100
AcDbLine
 10
670.6586757774602
 20
166.6751194786034
 30
0.0
 11
670.6586757774602
 21
160.7849194786031
 31
0.0
  0
SOLID
  5
51E2
330
51DB
100
AcDbEntity
  8
0
 62
     3
100
AcDbTrace
 10
670.5503424441267
 20
151.4397194786029
 30
0.0
 11
670.7670091107936
 21
151.4397194786029
 31
0.0
 12
670.6586757774602
 22
150.7897194786029
 32
0.0
 13
670.6586757774602
 23
150.7897194786029
 33
0.0
  0
SOLID
  5
51E3
330
51DB
100
AcDbEntity
  8
0
 62
     3
100
AcDbTrace
 10
670.5503424441267
 20
166.6751194786034
 30
0.0
 11
670.7670091107936
 21
166.6751194786034
 31
0.0
 12
670.6586757774602
 22
167.3251194786034
 32
0.0
 13
670.6586757774602
 23
167.3251194786034
 33
0.0
  0
MTEXT
  5
51E4
330
51DB
100
AcDbEntity
  8
0
 62
     3
100
AcDbMText
 10
670.6586757774602
 20
159.0574194786032
 30
0.0
 40
0.65
 41
0.0
 71
     5
 72
     1
  1
\A1;16 1/2"
 11
0.0000000000000001
 21
1.0
 31
0.0
 73
     1
 44
1.0
1001
ACAD
1000
MTEXTBEGIN
1070
    73
1070
     1
1070
    44
1040
1.0
1070
    74
1070
     0
1000
MTEXTEND
  0
POINT
  5
51E5
330
51DB
100
AcDbEntity
  8
DEFPOINTS
 62
     0
100
AcDbPoint
 10
661.2357383344011
 20
150.7897194786029
 30
0.0
  0
POINT
  5
51E6
330
51DB
100
AcDbEntity
  8
DEFPOINTS
 62
     0
100
AcDbPoint
 10
661.2357383344011
 20
167.3251194786034
 30
0.0
  0
POINT
  5
51E7
330
51DB
100
AcDbEntity
  8
DEFPOINTS
 62
     0
100
AcDbPoint
 10
670.6586757774602
 20
167.3251194786034
 30
0.0
  0
ENDBLK
  5
51DD
330
51DB
100
AcDbEntity
  8
0
100
AcDbBlockEnd
  0
BLOCK
  5
51EA
330
51E9
100
AcDbEntity
  8
0
100
AcDbBlockBegin
  2
*D44
 70
     1
 10
0.0
 20
0.0
 30
0.0
  3
*D44
  1

  0
LINE
  5
51EC
330
51E9
100
AcDbEntity
  8
0
  6
Continuous
 62
     3
370
    13
100
AcDbLine
 10
665.084236334403
 20
149.7897214786026
 30
0.0
 11
672.6788914952869
 21
149.7897214786026
 31
0.0
  0
LINE
  5
51ED
330
51E9
100
AcDbEntity
  8
0
  6
Continuous
 62
     3
370
    13
100
AcDbLine
 10
665.084236334403
 20
168.3251174786037
 30
0.0
 11
672.6788914952869
 21
168.3251174786037
 31
0.0
  0
LINE
  5
51EE
330
51E9
100
AcDbEntity
  8
0
  6
Continuous
 62
     3
370
    13
100
AcDbLine
 10
672.358891495287
 20
150.4397214786026
 30
0.0
 11
672.358891495287
 21
157.3299194786032
 31
0.0
  0
LINE
  5
51EF
330
51E9
100
AcDbEntity
  8
0
  6
Continuous
 62
     3
370
    13
100
AcDbLine
 10
672.358891495287
 20
167.6751174786037
 30
0.0
 11
672.358891495287
 21
160.7849194786032
 31
0.0
  0
SOLID
  5
51F0
330
51E9
100
AcDbEntity
  8
0
 62
     3
100
AcDbTrace
 10
672.2505581619536
 20
150.4397214786026
 30
0.0
 11
672.4672248286204
 21
150.4397214786026
 31
0.0
 12
672.358891495287
 22
149.7897214786026
 32
0.0
 13
672.358891495287
 23
149.7897214786026
 33
0.0
  0
SOLID
  5
51F1
330
51E9
100
AcDbEntity
  8
0
 62
     3
100
AcDbTrace
 10
672.2505581619536
 20
167.6751174786037
 30
0.0
 11
672.4672248286204
 21
167.6751174786037
 31
0.0
 12
672.358891495287
 22
168.3251174786037
 32
0.0
 13
672.358891495287
 23
168.3251174786037
 33
0.0
  0
MTEXT
  5
51F2
330
51E9
100
AcDbEntity
  8
0
 62
     3
100
AcDbMText
 10
672.358891495287
 20
159.0574194786033
 30
0.0
 40
0.65
 41
0.0
 71
     5
 72
     1
  1
\A1;18 1/2"
 11
0.0000000000000001
 21
1.0
 31
0.0
 73
     1
 44
1.0
1001
ACAD
1000
MTEXTBEGIN
1070
    73
1070
     1
1070
    44
1040
1.0
1070
    74
1070
     0
1000
MTEXTEND
  0
POINT
  5
51F3
330
51E9
100
AcDbEntity
  8
DEFPOINTS
 62
     0
100
AcDbPoint
 10
664.204236334403
 20
149.7897214786026
 30
0.0
  0
POINT
  5
51F4
330
51E9
100
AcDbEntity
  8
DEFPOINTS
 62
     0
100
AcDbPoint
 10
664.204236334403
 20
168.3251174786037
 30
0.0
  0
POINT
  5
51F5
330
51E9
100
AcDbEntity
  8
DEFPOINTS
 62
     0
100
AcDbPoint
 10
672.358891495287
 20
168.3251174786037
 30
0.0
  0
ENDBLK
  5
51EB
330
51E9
100
AcDbEntity
  8
0
100
AcDbBlockEnd
  0
BLOCK
  5
51F8
330
51F7
100
AcDbEntity
  8
0
100
AcDbBlockBegin
  2
*D45
 70
     1
 10
0.0
 20
0.0
 30
0.0
  3
*D45
  1

  0
LINE
  5
51FA
330
51F7
100
AcDbEntity
  8
0
  6
Continuous
 62
     3
370
    13
100
AcDbLine
 10
644.7179743344019
 20
150.7897194786024
 30
0.0
 11
634.4315930738424
 21
150.7897194786024
 31
0.0
  0
LINE
  5
51FB
330
51F7
100
AcDbEntity
  8
0
  6
Continuous
 62
     3
370
    13
100
AcDbLine
 10
644.7179743344019
 20
169.5298394786036
 30
0.0
 11
634.4315930738424
 21
169.5298394786036
 31
0.0
  0
LINE
  5
51FC
330
51F7
100
AcDbEntity
  8
0
  6
Continuous
 62
     3
370
    13
100
AcDbLine
 10
634.7515930738427
 20
151.4397194786024
 30
0.0
 11
634.7515930738427
 21
158.432279478603
 31
0.0
  0
LINE
  5
51FD
330
51F7
100
AcDbEntity
  8
0
  6
Continuous
 62
     3
370
    13
100
AcDbLine
 10
634.7515930738427
 20
168.8798394786036
 30
0.0
 11
634.7515930738427
 21
161.887279478603
 31
0.0
  0
SOLID
  5
51FE
330
51F7
100
AcDbEntity
  8
0
 62
     3
100
AcDbTrace
 10
634.6432597405094
 20
151.4397194786024
 30
0.0
 11
634.8599264071761
 21
151.4397194786024
 31
0.0
 12
634.7515930738427
 22
150.7897194786024
 32
0.0
 13
634.7515930738427
 23
150.7897194786024
 33
0.0
  0
SOLID
  5
51FF
330
51F7
100
AcDbEntity
  8
0
 62
     3
100
AcDbTrace
 10
634.6432597405094
 20
168.8798394786036
 30
0.0
 11
634.8599264071761
 21
168.8798394786036
 31
0.0
 12
634.7515930738427
 22
169.5298394786036
 32
0.0
 13
634.7515930738427
 23
169.5298394786036
 33
0.0
  0
MTEXT
  5
5200
330
51F7
100
AcDbEntity
  8
0
 62
     3
100
AcDbMText
 10
634.7515930738427
 20
160.1597794786031
 30
0.0
 40
0.65
 41
0.0
 71
     5
 72
     1
  1
\A1;18 3/4"
 11
0.0000000000000001
 21
1.0
 31
0.0
 73
     1
 44
1.0
1001
ACAD
1000
MTEXTBEGIN
1070
    73
1070
     1
1070
    44
1040
1.0
1070
    74
1070
     0
1000
MTEXTEND
  0
POINT
  5
5201
330
51F7
100
AcDbEntity
  8
DEFPOINTS
 62
     0
100
AcDbPoint
 10
645.5979743344019
 20
150.7897194786024
 30
0.0
  0
POINT
  5
5202
330
51F7
100
AcDbEntity
  8
DEFPOINTS
 62
     0
100
AcDbPoint
 10
645.5979743344019
 20
169.5298394786036
 30
0.0
  0
POINT
  5
5203
330
51F7
100
AcDbEntity
  8
DEFPOINTS
 62
     0
100
AcDbPoint
 10
634.7515930738427
 20
169.5298394786036
 30
0.0
  0
ENDBLK
  5
51F9
330
51F7
100
AcDbEntity
  8
0
100
AcDbBlockEnd
  0
BLOCK
  5
5206
330
5205
100
AcDbEntity
  8
0
100
AcDbBlockBegin
  2
*D46
 70
     1
 10
0.0
 20
0.0
 30
0.0
  3
*D46
  1

  0
LINE
  5
5208
330
5205
100
AcDbEntity
  8
0
  6
Continuous
 62
     3
370
    13
100
AcDbLine
 10
640.3715263343979
 20
149.7897214786026
 30
0.0
 11
632.7539493907813
 21
149.7897214786026
 31
0.0
  0
LINE
  5
5209
330
5205
100
AcDbEntity
  8
0
  6
Continuous
 62
     3
370
    13
100
AcDbLine
 10
640.3715263343979
 20
170.5298374786034
 30
0.0
 11
632.7539493907813
 21
170.5298374786034
 31
0.0
  0
LINE
  5
520A
330
5205
100
AcDbEntity
  8
0
  6
Continuous
 62
     3
370
    13
100
AcDbLine
 10
633.073949390781
 20
150.4397214786026
 30
0.0
 11
633.073949390781
 21
158.4033905897141
 31
0.0
  0
LINE
  5
520B
330
5205
100
AcDbEntity
  8
0
  6
Continuous
 62
     3
370
    13
100
AcDbLine
 10
633.073949390781
 20
169.8798374786034
 30
0.0
 11
633.073949390781
 21
161.9161683674919
 31
0.0
  0
SOLID
  5
520C
330
5205
100
AcDbEntity
  8
0
 62
     3
100
AcDbTrace
 10
632.9656160574477
 20
150.4397214786026
 30
0.0
 11
633.1822827241146
 21
150.4397214786026
 31
0.0
 12
633.073949390781
 22
149.7897214786026
 32
0.0
 13
633.073949390781
 23
149.7897214786026
 33
0.0
  0
SOLID
  5
520D
330
5205
100
AcDbEntity
  8
0
 62
     3
100
AcDbTrace
 10
632.9656160574477
 20
169.8798374786034
 30
0.0
 11
633.1822827241146
 21
169.8798374786034
 31
0.0
 12
633.073949390781
 22
170.5298374786034
 32
0.0
 13
633.073949390781
 23
170.5298374786034
 33
0.0
  0
MTEXT
  5
520E
330
5205
100
AcDbEntity
  8
0
 62
     3
100
AcDbMText
 10
633.073949390781
 20
160.1597794786031
 30
0.0
 40
0.65
 41
0.0
 71
     5
 72
     1
  1
\A1;20 3/4"
 11
0.0000000000000001
 21
1.0
 31
0.0
 73
     1
 44
1.0
1001
ACAD
1000
MTEXTBEGIN
1070
    73
1070
     1
1070
    44
1040
1.0
1070
    74
1070
     0
1000
MTEXTEND
  0
POINT
  5
520F
330
5205
100
AcDbEntity
  8
DEFPOINTS
 62
     0
100
AcDbPoint
 10
641.2515263343979
 20
149.7897214786026
 30
0.0
  0
POINT
  5
5210
330
5205
100
AcDbEntity
  8
DEFPOINTS
 62
     0
100
AcDbPoint
 10
641.2515263343979
 20
170.5298374786034
 30
0.0
  0
POINT
  5
5211
330
5205
100
AcDbEntity
  8
DEFPOINTS
 62
     0
100
AcDbPoint
 10
633.073949390781
 20
170.5298374786034
 30
0.0
  0
ENDBLK
  5
5207
330
5205
100
AcDbEntity
  8
0
100
AcDbBlockEnd
  0
BLOCK
  5
5367
330
5366
100
AcDbEntity
  8
0
 48
5.0
100
AcDbBlockBegin
  2
_None
 70
     0
 10
0.0
 20
0.0
 30
0.0
  3
_None
  1

  0
ENDBLK
  5
5368
330
5366
100
AcDbEntity
  8
0
 48
5.0
100
AcDbBlockEnd
  0
BLOCK
  5
5524
330
551F
100
AcDbEntity
  8
0
100
AcDbBlockBegin
  2
A$C2558637D
 70
     0
 10
0.0
 20
0.0
 30
0.0
  3
A$C2558637D
  1

  0
TEXT
  5
5520
330
551F
100
AcDbEntity
  8
标注
100
AcDbText
 10
7.575172182807933
 20
0.2771899266507205
 30
0.0
 40
0.7874015748031497
  1
TOP MOUNT CUTOUT
100
AcDbText
  0
LINE
  5
5521
330
551F
100
AcDbEntity
  8
截面层
 62
     1
100
AcDbLine
 10
0.0000003891219649
 20
0.5303913939555259
 30
0.0
 11
6.216805393205389
 21
0.5303913939555259
 31
0.0
  0
ENDBLK
  5
5525
330
551F
100
AcDbEntity
  8
0
100
AcDbBlockEnd
  0
BLOCK
  5
552A
330
5529
100
AcDbEntity
  8
0
100
AcDbBlockBegin
  2
*D49
 70
     1
 10
0.0
 20
0.0
 30
0.0
  3
*D49
  1

  0
LINE
  5
56AA
330
5529
100
AcDbEntity
  8
0
  6
Continuous
 62
     3
370
    13
100
AcDbLine
 10
698.6935733290829
 20
155.1119650864239
 30
0.0
 11
698.6935733290829
 21
144.391936711071
 31
0.0
  0
LINE
  5
56AB
330
5529
100
AcDbEntity
  8
0
  6
Continuous
 62
     3
370
    13
100
AcDbLine
 10
728.2210733290855
 20
155.1119650864093
 30
0.0
 11
728.2210733290855
 21
144.391936711071
 31
0.0
  0
LINE
  5
56AC
330
5529
100
AcDbEntity
  8
0
  6
Continuous
 62
     3
370
    13
100
AcDbLine
 10
699.3435733290829
 20
144.711936711071
 30
0.0
 11
711.7009344401954
 21
144.711936711071
 31
0.0
  0
LINE
  5
56AD
330
5529
100
AcDbEntity
  8
0
  6
Continuous
 62
     3
370
    13
100
AcDbLine
 10
727.5710733290856
 20
144.711936711071
 30
0.0
 11
715.213712217973
 21
144.711936711071
 31
0.0
  0
SOLID
  5
56AE
330
5529
100
AcDbEntity
  8
0
 62
     3
100
AcDbTrace
 10
699.3435733290829
 20
144.8202700444043
 30
0.0
 11
699.3435733290829
 21
144.6036033777376
 31
0.0
 12
698.6935733290829
 22
144.711936711071
 32
0.0
 13
698.6935733290829
 23
144.711936711071
 33
0.0
  0
SOLID
  5
56AF
330
5529
100
AcDbEntity
  8
0
 62
     3
100
AcDbTrace
 10
727.5710733290856
 20
144.8202700444043
 30
0.0
 11
727.5710733290856
 21
144.6036033777376
 31
0.0
 12
728.2210733290855
 22
144.711936711071
 32
0.0
 13
728.2210733290855
 23
144.711936711071
 33
0.0
  0
MTEXT
  5
56B0
330
5529
100
AcDbEntity
  8
0
 62
     3
100
AcDbMText
 10
713.4573233290843
 20
144.711936711071
 30
0.0
 40
0.65
 41
0.0
 71
     5
 72
     1
  1
\A1;29 1/2"
 73
     1
 44
1.0
1001
ACAD
1000
MTEXTBEGIN
1070
    73
1070
     1
1070
    44
1040
1.0
1070
    74
1070
     0
1000
MTEXTEND
  0
POINT
  5
56B1
330
5529
100
AcDbEntity
  8
DEFPOINTS
 62
     0
100
AcDbPoint
 10
698.6935733290829
 20
155.9919650864239
 30
0.0
  0
POINT
  5
56B2
330
5529
100
AcDbEntity
  8
DEFPOINTS
 62
     0
100
AcDbPoint
 10
728.2210733290855
 20
155.9919650864093
 30
0.0
  0
POINT
  5
56B3
330
5529
100
AcDbEntity
  8
DEFPOINTS
 62
     0
100
AcDbPoint
 10
728.2210733290855
 20
144.711936711071
 30
0.0
  0
ENDBLK
  5
552B
330
5529
100
AcDbEntity
  8
0
100
AcDbBlockEnd
  0
BLOCK
  5
5538
330
5537
100
AcDbEntity
  8
0
100
AcDbBlockBegin
  2
*D50
 70
     1
 10
0.0
 20
0.0
 30
0.0
  3
*D50
  1

  0
LINE
  5
56B4
330
5537
100
AcDbEntity
  8
0
  6
Continuous
 62
     3
370
    13
100
AcDbLine
 10
696.9612933290806
 20
147.1592250864159
 30
0.0
 11
696.9612933290806
 21
142.5333639043358
 31
0.0
  0
LINE
  5
56B5
330
5537
100
AcDbEntity
  8
0
  6
Continuous
 62
     3
370
    13
100
AcDbLine
 10
729.9533533290826
 20
147.1592250864159
 30
0.0
 11
729.9533533290826
 21
142.5333639043358
 31
0.0
  0
LINE
  5
56B6
330
5537
100
AcDbEntity
  8
0
  6
Continuous
 62
     3
370
    13
100
AcDbLine
 10
697.6112933290806
 20
142.8533639043358
 30
0.0
 11
712.6289899957482
 21
142.8533639043358
 31
0.0
  0
LINE
  5
56B7
330
5537
100
AcDbEntity
  8
0
  6
Continuous
 62
     3
370
    13
100
AcDbLine
 10
729.3033533290826
 20
142.8533639043358
 30
0.0
 11
714.285656662415
 21
142.8533639043358
 31
0.0
  0
SOLID
  5
56B8
330
5537
100
AcDbEntity
  8
0
 62
     3
100
AcDbTrace
 10
697.6112933290806
 20
142.9616972376691
 30
0.0
 11
697.6112933290806
 21
142.7450305710024
 31
0.0
 12
696.9612933290806
 22
142.8533639043358
 32
0.0
 13
696.9612933290806
 23
142.8533639043358
 33
0.0
  0
SOLID
  5
56B9
330
5537
100
AcDbEntity
  8
0
 62
     3
100
AcDbTrace
 10
729.3033533290826
 20
142.9616972376691
 30
0.0
 11
729.3033533290826
 21
142.7450305710024
 31
0.0
 12
729.9533533290826
 22
142.8533639043358
 32
0.0
 13
729.9533533290826
 23
142.8533639043358
 33
0.0
  0
MTEXT
  5
56BA
330
5537
100
AcDbEntity
  8
0
 62
     3
100
AcDbMText
 10
713.4573233290816
 20
142.8533639043358
 30
0.0
 40
0.65
 41
0.0
 71
     5
 72
     1
  1
\A1;33"
 73
     1
 44
1.0
1001
ACAD
1000
MTEXTBEGIN
1070
    73
1070
     1
1070
    44
1040
1.0
1070
    74
1070
     0
1000
MTEXTEND
  0
POINT
  5
56BB
330
5537
100
AcDbEntity
  8
DEFPOINTS
 62
     0
100
AcDbPoint
 10
696.9612933290806
 20
148.0392250864159
 30
0.0
  0
POINT
  5
56BC
330
5537
100
AcDbEntity
  8
DEFPOINTS
 62
     0
100
AcDbPoint
 10
729.9533533290826
 20
148.0392250864159
 30
0.0
  0
POINT
  5
56BD
330
5537
100
AcDbEntity
  8
DEFPOINTS
 62
     0
100
AcDbPoint
 10
729.9533533290826
 20
142.8533639043358
 30
0.0
  0
ENDBLK
  5
5539
330
5537
100
AcDbEntity
  8
0
100
AcDbBlockEnd
  0
BLOCK
  5
5546
330
5545
100
AcDbEntity
  8
0
100
AcDbBlockBegin
  2
*D51
 70
     1
 10
0.0
 20
0.0
 30
0.0
  3
*D51
  1

  0
LINE
  5
56BE
330
5545
100
AcDbEntity
  8
0
  6
Continuous
 62
     3
370
    13
100
AcDbLine
 10
714.3373233290872
 20
148.196705086426
 30
0.0
 11
731.8604214344073
 21
148.196705086426
 31
0.0
  0
LINE
  5
56BF
330
5545
100
AcDbEntity
  8
0
  6
Continuous
 62
     3
370
    13
100
AcDbLine
 10
714.3373233290876
 20
164.1415550864236
 30
0.0
 11
731.8604214344073
 21
164.1415550864236
 31
0.0
  0
LINE
  5
56C0
330
5545
100
AcDbEntity
  8
0
  6
Continuous
 62
     3
370
    13
100
AcDbLine
 10
731.5404214344073
 20
148.846705086426
 30
0.0
 11
731.5404214344073
 21
155.3660745308692
 31
0.0
  0
LINE
  5
56C1
330
5545
100
AcDbEntity
  8
0
  6
Continuous
 62
     3
370
    13
100
AcDbLine
 10
731.5404214344073
 20
163.4915550864235
 30
0.0
 11
731.5404214344073
 21
156.9721856419803
 31
0.0
  0
SOLID
  5
56C2
330
5545
100
AcDbEntity
  8
0
 62
     3
100
AcDbTrace
 10
731.432088101074
 20
148.846705086426
 30
0.0
 11
731.6487547677406
 21
148.846705086426
 31
0.0
 12
731.5404214344073
 22
148.196705086426
 32
0.0
 13
731.5404214344073
 23
148.196705086426
 33
0.0
  0
SOLID
  5
56C3
330
5545
100
AcDbEntity
  8
0
 62
     3
100
AcDbTrace
 10
731.432088101074
 20
163.4915550864235
 30
0.0
 11
731.6487547677406
 21
163.4915550864235
 31
0.0
 12
731.5404214344073
 22
164.1415550864236
 32
0.0
 13
731.5404214344073
 23
164.1415550864236
 33
0.0
  0
MTEXT
  5
56C4
330
5545
100
AcDbEntity
  8
0
 62
     3
100
AcDbMText
 10
731.5404214344073
 20
156.1691300864249
 30
0.0
 40
0.65
 41
0.0
 71
     5
 72
     1
  1
\A1;16"
 11
0.0000000000000001
 21
1.0
 31
0.0
 73
     1
 44
1.0
1001
ACAD
1000
MTEXTBEGIN
1070
    73
1070
     1
1070
    44
1040
1.0
1070
    74
1070
     0
1000
MTEXTEND
  0
POINT
  5
56C5
330
5545
100
AcDbEntity
  8
DEFPOINTS
 62
     0
100
AcDbPoint
 10
713.4573233290872
 20
148.196705086426
 30
0.0
  0
POINT
  5
56C6
330
5545
100
AcDbEntity
  8
DEFPOINTS
 62
     0
100
AcDbPoint
 10
713.4573233290876
 20
164.1415550864236
 30
0.0
  0
POINT
  5
56C7
330
5545
100
AcDbEntity
  8
DEFPOINTS
 62
     0
100
AcDbPoint
 10
731.5404214344073
 20
164.1415550864236
 30
0.0
  0
ENDBLK
  5
5547
330
5545
100
AcDbEntity
  8
0
100
AcDbBlockEnd
  0
BLOCK
  5
5554
330
5553
100
AcDbEntity
  8
0
100
AcDbBlockBegin
  2
*D52
 70
     1
 10
0.0
 20
0.0
 30
0.0
  3
*D52
  1

  0
LINE
  5
56C8
330
5553
100
AcDbEntity
  8
0
  6
Continuous
 62
     3
370
    13
100
AcDbLine
 10
729.1010733290855
 20
146.4644250864139
 30
0.0
 11
733.9102335406547
 21
146.4644250864139
 31
0.0
  0
LINE
  5
56C9
330
5553
100
AcDbEntity
  8
0
  6
Continuous
 62
     3
370
    13
100
AcDbLine
 10
729.1010733290855
 20
168.4328850864175
 30
0.0
 11
733.9102335406547
 21
168.4328850864175
 31
0.0
  0
LINE
  5
56CA
330
5553
100
AcDbEntity
  8
0
  6
Continuous
 62
     3
370
    13
100
AcDbLine
 10
733.5902335406546
 20
147.1144250864139
 30
0.0
 11
733.5902335406546
 21
155.3528670353755
 31
0.0
  0
LINE
  5
56CB
330
5553
100
AcDbEntity
  8
0
  6
Continuous
 62
     3
370
    13
100
AcDbLine
 10
733.5902335406546
 20
167.7828850864175
 30
0.0
 11
733.5902335406546
 21
157.0167559242644
 31
0.0
  0
MTEXT
  5
56CC
330
5553
100
AcDbEntity
  8
0
 62
     3
100
AcDbMText
 10
733.5902335406546
 20
156.1848114798201
 30
0.0
 40
0.65
 41
0.0
 71
     5
 72
     1
  1
\A1;22"
 11
0.0000000000000001
 21
1.0
 31
0.0
 73
     1
 44
1.0
1001
ACAD
1000
MTEXTBEGIN
1070
    73
1070
     1
1070
    44
1040
1.0
1070
    74
1070
     0
1000
MTEXTEND
  0
SOLID
  5
56CD
330
5553
100
AcDbEntity
  8
0
 62
     3
100
AcDbTrace
 10
733.4819002073214
 20
147.1144250864139
 30
0.0
 11
733.698566873988
 21
147.1144250864139
 31
0.0
 12
733.5902335406546
 22
146.4644250864139
 32
0.0
 13
733.5902335406546
 23
146.4644250864139
 33
0.0
  0
SOLID
  5
56CE
330
5553
100
AcDbEntity
  8
0
 62
     3
100
AcDbTrace
 10
733.4819002073214
 20
167.7828850864175
 30
0.0
 11
733.698566873988
 21
167.7828850864175
 31
0.0
 12
733.5902335406546
 22
168.4328850864175
 32
0.0
 13
733.5902335406546
 23
168.4328850864175
 33
0.0
  0
POINT
  5
56CF
330
5553
100
AcDbEntity
  8
DEFPOINTS
 62
     0
100
AcDbPoint
 10
728.2210733290855
 20
146.4644250864139
 30
0.0
  0
POINT
  5
56D0
330
5553
100
AcDbEntity
  8
DEFPOINTS
 62
     0
100
AcDbPoint
 10
728.2210733290855
 20
168.4328850864175
 30
0.0
  0
POINT
  5
56D1
330
5553
100
AcDbEntity
  8
DEFPOINTS
 62
     0
100
AcDbPoint
 10
733.5902335406546
 20
168.4328850864175
 30
0.0
  0
ENDBLK
  5
5555
330
5553
100
AcDbEntity
  8
0
100
AcDbBlockEnd
  0
BLOCK
  5
55AA
330
55A9
100
AcDbEntity
  8
0
100
AcDbBlockBegin
  2
*D53
 70
     1
 10
0.0
 20
0.0
 30
0.0
  3
*D53
  1

  0
LINE
  5
56EC
330
55A9
100
AcDbEntity
  8
0
  6
Continuous
 62
     3
370
    13
100
AcDbLine
 10
730.6395046292566
 20
189.3157371788292
 30
0.0
 11
732.1442828689509
 21
189.3157371788292
 31
0.0
  0
LINE
  5
56ED
330
55A9
100
AcDbEntity
  8
0
  6
Continuous
 62
     3
370
    13
100
AcDbLine
 10
730.6395046292566
 20
180.3157371788292
 30
0.0
 11
732.1442828689509
 21
180.3157371788292
 31
0.0
  0
LINE
  5
56EE
330
55A9
100
AcDbEntity
  8
0
  6
Continuous
 62
     3
370
    13
100
AcDbLine
 10
731.8242828689508
 20
188.6657371788292
 30
0.0
 11
731.8242828689508
 21
185.4201816232736
 31
0.0
  0
LINE
  5
56EF
330
55A9
100
AcDbEntity
  8
0
  6
Continuous
 62
     3
370
    13
100
AcDbLine
 10
731.8242828689508
 20
180.9657371788292
 30
0.0
 11
731.8242828689508
 21
184.2112927343847
 31
0.0
  0
SOLID
  5
56F0
330
55A9
100
AcDbEntity
  8
0
 62
     3
100
AcDbTrace
 10
731.7159495356174
 20
188.6657371788292
 30
0.0
 11
731.9326162022841
 21
188.6657371788292
 31
0.0
 12
731.8242828689508
 22
189.3157371788292
 32
0.0
 13
731.8242828689508
 23
189.3157371788292
 33
0.0
  0
SOLID
  5
56F1
330
55A9
100
AcDbEntity
  8
0
 62
     3
100
AcDbTrace
 10
731.7159495356174
 20
180.9657371788292
 30
0.0
 11
731.9326162022841
 21
180.9657371788292
 31
0.0
 12
731.8242828689508
 22
180.3157371788292
 32
0.0
 13
731.8242828689508
 23
180.3157371788292
 33
0.0
  0
MTEXT
  5
56F2
330
55A9
100
AcDbEntity
  8
0
 62
     3
100
AcDbMText
 10
731.8242828689508
 20
184.8157371788293
 30
0.0
 40
0.65
 41
0.0
 71
     5
 72
     1
  1
\A1;9"
 11
0.0000000000000001
 21
1.0
 31
0.0
 73
     1
 44
1.0
1001
ACAD
1000
MTEXTBEGIN
1070
    73
1070
     1
1070
    44
1040
1.0
1070
    74
1070
     0
1000
MTEXTEND
  0
POINT
  5
56F3
330
55A9
100
AcDbEntity
  8
DEFPOINTS
 62
     0
100
AcDbPoint
 10
729.7595046292566
 20
189.3157371788292
 30
0.0
  0
POINT
  5
56F4
330
55A9
100
AcDbEntity
  8
DEFPOINTS
 62
     0
100
AcDbPoint
 10
729.7595046292566
 20
180.3157371788292
 30
0.0
  0
POINT
  5
56F5
330
55A9
100
AcDbEntity
  8
DEFPOINTS
 62
     0
100
AcDbPoint
 10
731.8242828689508
 20
180.3157371788292
 30
0.0
  0
ENDBLK
  5
55AB
330
55A9
100
AcDbEntity
  8
0
100
AcDbBlockEnd
  0
ENDSEC
  0
SECTION
  2
ENTITIES
  0
LINE
  5
5444
330
432D
100
AcDbEntity
  8
剖面线
100
AcDbLine
 10
698.688067291908
 20
189.0795171788377
 30
0.0
 11
699.0801191042349
 21
182.4532250554657
 31
0.0
  0
LINE
  5
5445
330
432D
100
AcDbEntity
  8
0
100
AcDbLine
 10
711.1738633290817
 20
180.3039371788362
 30
0.0
 11
715.7407833290792
 21
180.3039371788362
 31
0.0
  0
LINE
  5
5446
330
432D
100
AcDbEntity
  8
0
100
AcDbLine
 10
698.688067291908
 20
189.0795171788377
 30
0.0
 11
728.2267709393213
 21
189.0822568013281
 31
0.0
  0
LINE
  5
5447
330
432D
100
AcDbEntity
  8
0
100
AcDbLine
 10
697.8893548322897
 20
189.1976271788334
 30
0.0
 11
729.0252918258787
 21
189.1976271788334
 31
0.0
  0
LINE
  5
5448
330
432D
100
AcDbEntity
  8
0
100
AcDbLine
 10
696.9612933290857
 20
166.8580850864153
 30
0.0
 11
696.9612933290857
 21
148.0392250864159
 31
0.0
  0
LINE
  5
5449
330
432D
100
AcDbEntity
  8
0
100
AcDbLine
 10
728.3785533290805
 20
168.4328850864175
 30
0.0
 11
698.5360933290808
 21
168.4328850864175
 31
0.0
  0
LINE
  5
544A
330
432D
100
AcDbEntity
  8
0
100
AcDbLine
 10
698.5360933290808
 20
146.4644250864284
 30
0.0
 11
728.3785533290805
 21
146.4644250864138
 31
0.0
  0
LINE
  5
544B
330
432D
100
AcDbEntity
  8
0
100
AcDbLine
 10
729.9533533290826
 20
148.0392250864159
 30
0.0
 11
729.9533533290826
 21
166.8580850864153
 31
0.0
  0
LINE
  5
544C
330
432D
100
AcDbEntity
  8
中心线
 48
0.2
100
AcDbLine
 10
713.4573233290806
 20
178.9073716192147
 30
0.0
 11
713.4573233290806
 21
181.7005027384579
 31
0.0
  0
LINE
  5
544D
330
432D
100
AcDbEntity
  8
剖面线
100
AcDbLine
 10
697.7714349371174
 20
189.3157371788292
 30
0.0
 11
697.1551420289046
 21
189.3157371788292
 31
0.0
  0
LINE
  5
544E
330
432D
100
AcDbEntity
  8
剖面线
100
AcDbLine
 10
696.9612933290857
 20
189.1216430788372
 30
0.0
 11
697.1551420289046
 21
189.3157371788292
 31
0.0
  0
LINE
  5
544F
330
432D
100
AcDbEntity
  8
剖面线
100
AcDbLine
 10
698.0072747274618
 20
189.079517178823
 30
0.0
 11
697.7714349371174
 21
189.3157371788292
 31
0.0
  0
LINE
  5
5450
330
432D
100
AcDbEntity
  8
剖面线
100
AcDbLine
 10
698.0072747274618
 20
189.079517178823
 30
0.0
 11
698.688067291908
 21
189.0795171788377
 31
0.0
  0
LINE
  5
5451
330
432D
100
AcDbEntity
  8
剖面线
100
AcDbLine
 10
697.7539598344458
 20
189.2842411788332
 30
0.0
 11
697.1681997716307
 21
189.2842411788332
 31
0.0
  0
LINE
  5
5452
330
432D
100
AcDbEntity
  8
剖面线
100
AcDbLine
 10
697.9897996247902
 20
189.048021178827
 30
0.0
 11
697.7539598344458
 21
189.2842411788332
 31
0.0
  0
LINE
  5
5453
330
432D
100
AcDbEntity
  8
剖面线
100
AcDbLine
 10
697.9897996247902
 20
189.048021178827
 30
0.0
 11
698.6586967967609
 21
189.048021178827
 31
0.0
  0
LINE
  5
5454
330
432D
100
AcDbEntity
  8
剖面线
100
AcDbLine
 10
698.6586967967609
 20
189.048021178827
 30
0.0
 11
699.0486998269054
 21
182.4510280055728
 31
0.0
  0
CIRCLE
  5
5455
330
432D
100
AcDbEntity
  8
0
100
AcDbCircle
 10
713.4573233290806
 20
158.2754250864153
 30
0.0
 40
2.283459999999999
  0
CIRCLE
  5
5456
330
432D
100
AcDbEntity
  8
0
100
AcDbCircle
 10
713.4573233290806
 20
158.2754250864153
 30
0.0
 40
2.16535
  0
CIRCLE
  5
5457
330
432D
100
AcDbEntity
  8
0
100
AcDbCircle
 10
713.4573233290806
 20
158.2754250864153
 30
0.0
 40
1.81102
  0
LINE
  5
5458
330
432D
100
AcDbEntity
  8
剖面线
100
AcDbLine
 10
711.2900442419499
 20
180.1449181095557
 30
0.0
 11
711.1738633290817
 21
180.3039371788362
 31
0.0
  0
LINE
  5
5459
330
432D
100
AcDbEntity
  8
剖面线
100
AcDbLine
 10
711.6463033290869
 20
180.0677171788302
 30
0.0
 11
711.2900442419499
 21
180.1449181095557
 31
0.0
  0
LINE
  5
545A
330
432D
100
AcDbEntity
  8
剖面线
100
AcDbLine
 10
711.2716746741873
 20
180.1166717562917
 30
0.0
 11
711.1577549024017
 21
180.2725959579001
 31
0.0
  0
LINE
  5
545B
330
432D
100
AcDbEntity
  8
剖面线
100
AcDbLine
 10
711.6463033290869
 20
180.0354901615536
 30
0.0
 11
711.6463033290869
 21
180.0677171788302
 31
0.0
  0
LINE
  5
545C
330
432D
100
AcDbEntity
  8
0
 48
5.0
370
     0
100
AcDbLine
 10
711.6463033290796
 20
180.0677171788302
 30
0.0
 11
715.2683433290815
 21
180.0677171788302
 31
0.0
  0
LINE
  5
545D
330
432D
100
AcDbEntity
  8
剖面线
100
AcDbLine
 10
711.6463033290869
 20
180.0354901615536
 30
0.0
 11
711.2716746741873
 21
180.1166717562917
 31
0.0
  0
LINE
  5
545E
330
432D
100
AcDbEntity
  8
0
 48
5.0
370
     0
100
AcDbLine
 10
711.6463033290869
 20
180.0354901615536
 30
0.0
 11
715.2683433290815
 21
180.0354901615536
 31
0.0
  0
LINE
  5
545F
330
432D
100
AcDbEntity
  8
0
 48
5.0
100
AcDbLine
 10
697.7714349371174
 20
189.3157371788292
 30
0.0
 11
729.143211721051
 21
189.3157371788292
 31
0.0
  0
LINE
  5
5460
330
432D
100
AcDbEntity
  8
中心线
 48
0.2
100
AcDbLine
 10
713.4573233290806
 20
168.80095977395
 30
0.0
 11
713.4573233290877
 21
146.1649904681461
 31
0.0
  0
LINE
  5
5461
330
432D
100
AcDbEntity
  8
中心线
 48
0.2
100
AcDbLine
 10
708.3727824806495
 20
166.149425086426
 30
0.0
 11
718.8193495325769
 21
166.149425086426
 31
0.0
  0
LINE
  5
5462
330
432D
100
AcDbEntity
  8
中心线
 48
1.5
100
AcDbLine
 10
709.4415833290852
 20
164.9367825526632
 30
0.0
 11
709.4415833290852
 21
167.3009066518633
 31
0.0
  0
LINE
  5
5463
330
432D
100
AcDbEntity
  8
中心线
 48
0.2
100
AcDbLine
 10
717.473063329083
 20
164.9367825526632
 30
0.0
 11
717.473063329083
 21
167.3009066518633
 31
0.0
  0
LINE
  5
5464
330
432D
100
AcDbEntity
  8
中心线
 48
0.2
100
AcDbLine
 10
709.9249541867624
 20
158.2754250864153
 30
0.0
 11
716.8716817822653
 21
158.2754250864153
 31
0.0
  0
CIRCLE
  5
5465
330
432D
100
AcDbEntity
  8
0
100
AcDbCircle
 10
717.473063329083
 20
166.149425086426
 30
0.0
 40
0.6889750000000002
  0
CIRCLE
  5
5466
330
432D
100
AcDbEntity
  8
0
100
AcDbCircle
 10
713.4573233290806
 20
166.149425086426
 30
0.0
 40
0.6889750000000002
  0
CIRCLE
  5
5467
330
432D
100
AcDbEntity
  8
0
100
AcDbCircle
 10
709.4415833290852
 20
166.149425086426
 30
0.0
 40
0.6889750000000002
  0
LINE
  5
5468
330
432D
100
AcDbEntity
  8
剖面线
100
AcDbLine
 10
696.9835784477485
 20
189.0993861360511
 30
0.0
 11
697.1681997716307
 21
189.2842411788332
 31
0.0
  0
LINE
  5
5469
330
432D
100
AcDbEntity
  8
剖面线
100
AcDbLine
 10
696.9612933290857
 20
189.1216430788372
 30
0.0
 11
696.9835784477485
 21
189.0993861360511
 31
0.0
  0
LINE
  5
546A
330
432D
100
AcDbEntity
  8
剖面线
100
AcDbLine
 10
728.2265793662531
 20
189.0795171788377
 30
0.0
 11
727.8345275539335
 21
182.4532250554657
 31
0.0
  0
LINE
  5
546B
330
432D
100
AcDbEntity
  8
剖面线
100
AcDbLine
 10
728.2559498614078
 20
189.048021178827
 30
0.0
 11
727.8659468312628
 21
182.4510280055728
 31
0.0
  0
LINE
  5
546C
330
432D
100
AcDbEntity
  8
剖面线
100
AcDbLine
 10
715.6246024162185
 20
180.1449181095557
 30
0.0
 11
715.7407833290792
 21
180.3039371788362
 31
0.0
  0
LINE
  5
546D
330
432D
100
AcDbEntity
  8
剖面线
100
AcDbLine
 10
715.2683433290815
 20
180.0677171788302
 30
0.0
 11
715.6246024162185
 21
180.1449181095557
 31
0.0
  0
LINE
  5
546E
330
432D
100
AcDbEntity
  8
剖面线
100
AcDbLine
 10
715.6429719839736
 20
180.1166717562917
 30
0.0
 11
715.7568917557593
 21
180.2725959579001
 31
0.0
  0
LINE
  5
546F
330
432D
100
AcDbEntity
  8
剖面线
100
AcDbLine
 10
715.2683433290815
 20
180.0354901615536
 30
0.0
 11
715.2683433290815
 21
180.0677171788302
 31
0.0
  0
LINE
  5
5470
330
432D
100
AcDbEntity
  8
剖面线
100
AcDbLine
 10
715.2683433290815
 20
180.0354901615536
 30
0.0
 11
715.6429719839736
 21
180.1166717562917
 31
0.0
  0
LINE
  5
5471
330
432D
100
AcDbEntity
  8
剖面线
100
AcDbLine
 10
729.143211721051
 20
189.3157371788292
 30
0.0
 11
729.7595046292566
 21
189.3157371788292
 31
0.0
  0
LINE
  5
5472
330
432D
100
AcDbEntity
  8
剖面线
100
AcDbLine
 10
729.9533533290826
 20
189.1216430788372
 30
0.0
 11
729.7595046292566
 21
189.3157371788292
 31
0.0
  0
LINE
  5
5473
330
432D
100
AcDbEntity
  8
剖面线
100
AcDbLine
 10
728.9073719307065
 20
189.0795171788377
 30
0.0
 11
728.2267709393213
 21
189.0822568013281
 31
0.0
  0
LINE
  5
5474
330
432D
100
AcDbEntity
  8
剖面线
100
AcDbLine
 10
729.1606868237225
 20
189.2842411788332
 30
0.0
 11
729.7464468865378
 21
189.2842411788332
 31
0.0
  0
LINE
  5
5475
330
432D
100
AcDbEntity
  8
剖面线
100
AcDbLine
 10
728.9248470333781
 20
189.048021178827
 30
0.0
 11
728.2559498614078
 21
189.048021178827
 31
0.0
  0
LINE
  5
5476
330
432D
100
AcDbEntity
  8
剖面线
100
AcDbLine
 10
729.9310682104199
 20
189.0993861360511
 30
0.0
 11
729.7464468865378
 21
189.2842411788332
 31
0.0
  0
LINE
  5
5477
330
432D
100
AcDbEntity
  8
剖面线
100
AcDbLine
 10
729.9533533290826
 20
189.1216430788372
 30
0.0
 11
729.9310682104199
 21
189.0993861360511
 31
0.0
  0
ARC
  5
5478
330
432D
100
AcDbEntity
  8
0
100
AcDbCircle
 10
698.5360933290808
 20
148.0392250864159
 30
0.0
 40
1.574799999999999
100
AcDbArc
 50
180.0
 51
270.0
  0
ARC
  5
5479
330
432D
100
AcDbEntity
  8
0
100
AcDbCircle
 10
698.5360933290808
 20
166.8580850864153
 30
0.0
 40
1.574799999999999
100
AcDbArc
 50
90.0
 51
180.0
  0
ARC
  5
547A
330
432D
100
AcDbEntity
  8
0
100
AcDbCircle
 10
728.3785533290805
 20
166.8580850864153
 30
0.0
 40
1.574799999999999
100
AcDbArc
 50
0.0
 51
90.0
  0
ARC
  5
547B
330
432D
100
AcDbEntity
  8
0
100
AcDbCircle
 10
728.3785533290805
 20
148.0392250864159
 30
0.0
 40
1.574799999999999
100
AcDbArc
 50
270.0
 51
0.0
  0
ARC
  5
547C
330
432D
100
AcDbEntity
  8
0
100
AcDbCircle
 10
728.3785533290805
 20
148.0392250864159
 30
0.0
 40
1.37795
100
AcDbArc
 50
270.0
 51
0.0
  0
LINE
  5
547D
330
432D
100
AcDbEntity
  8
0
100
AcDbLine
 10
698.5360933290808
 20
146.6612750864213
 30
0.0
 11
728.3785533290805
 21
146.6612750864213
 31
0.0
  0
LINE
  5
547E
330
432D
100
AcDbEntity
  8
0
100
AcDbLine
 10
729.7565033290822
 20
148.0392250864159
 30
0.0
 11
729.7565033290822
 21
166.8580850864153
 31
0.0
  0
ARC
  5
547F
330
432D
100
AcDbEntity
  8
0
100
AcDbCircle
 10
728.3785533290805
 20
166.8580850864153
 30
0.0
 40
1.37795
100
AcDbArc
 50
0.0
 51
90.0
  0
LINE
  5
5480
330
432D
100
AcDbEntity
  8
0
100
AcDbLine
 10
728.3785533290805
 20
168.2360350864245
 30
0.0
 11
698.5360933290808
 21
168.2360350864245
 31
0.0
  0
ARC
  5
5481
330
432D
100
AcDbEntity
  8
0
100
AcDbCircle
 10
698.5360933290808
 20
166.8580850864153
 30
0.0
 40
1.37795
100
AcDbArc
 50
90.0
 51
180.0
  0
LINE
  5
5482
330
432D
100
AcDbEntity
  8
0
100
AcDbLine
 10
697.1581433290861
 20
166.8580850864153
 30
0.0
 11
697.1581433290861
 21
148.0392250864159
 31
0.0
  0
ARC
  5
5483
330
432D
100
AcDbEntity
  8
0
100
AcDbCircle
 10
698.5360933290808
 20
148.0392250864159
 30
0.0
 40
1.37795
100
AcDbArc
 50
180.0
 51
270.0
  0
ARC
  5
5484
330
432D
100
AcDbEntity
  8
0
100
AcDbCircle
 10
698.5360933290808
 20
148.0392250864159
 30
0.0
 40
0.7874000000000001
100
AcDbArc
 50
180.0
 51
270.0
  0
LINE
  5
5485
330
432D
100
AcDbEntity
  8
0
100
AcDbLine
 10
697.7486933290796
 20
166.8580850864153
 30
0.0
 11
697.7486933290796
 21
148.0392250864159
 31
0.0
  0
LINE
  5
5486
330
432D
100
AcDbEntity
  8
0
100
AcDbLine
 10
698.5360933290808
 20
147.2518250864149
 30
0.0
 11
728.3785533290805
 21
147.2518250864149
 31
0.0
  0
ARC
  5
5487
330
432D
100
AcDbEntity
  8
0
100
AcDbCircle
 10
728.3785533290805
 20
148.0392250864159
 30
0.0
 40
0.7874000000000001
100
AcDbArc
 50
270.0
 51
0.0
  0
LINE
  5
5488
330
432D
100
AcDbEntity
  8
0
100
AcDbLine
 10
729.1659533290816
 20
148.0392250864159
 30
0.0
 11
729.1659533290816
 21
166.8580850864153
 31
0.0
  0
ARC
  5
5489
330
432D
100
AcDbEntity
  8
0
100
AcDbCircle
 10
728.3785533290805
 20
166.8580850864153
 30
0.0
 40
0.7874000000000001
100
AcDbArc
 50
0.0
 51
90.0
  0
LINE
  5
548A
330
432D
100
AcDbEntity
  8
0
100
AcDbLine
 10
728.3785533290805
 20
167.6454850864164
 30
0.0
 11
698.5360933290808
 21
167.6454850864164
 31
0.0
  0
ARC
  5
548B
330
432D
100
AcDbEntity
  8
0
100
AcDbCircle
 10
698.5360933290808
 20
166.8580850864153
 30
0.0
 40
0.7874000000000001
100
AcDbArc
 50
90.0
 51
180.0
  0
LINE
  5
548C
330
432D
100
AcDbEntity
  8
剖面线
100
AcDbLine
 10
697.2563558030391
 20
188.6936911788252
 30
0.0
 11
697.2563558030391
 21
189.2055011788214
 31
0.0
  0
LINE
  5
548D
330
432D
100
AcDbEntity
  8
剖面线
100
AcDbLine
 10
697.3004309981564
 20
188.8187149349432
 30
0.0
 11
697.271911754245
 21
188.6919627398054
 31
0.0
  0
ARC
  5
548E
330
432D
100
AcDbEntity
  8
剖面线
100
AcDbCircle
 10
697.2642298030343
 20
188.6936911788252
 30
0.0
 40
0.007874
100
AcDbArc
 50
180.0
 51
347.3196165004428
  0
ARC
  5
548F
330
432D
100
AcDbEntity
  8
剖面线
100
AcDbCircle
 10
697.2642298030343
 20
188.6936911788252
 30
0.0
 40
0.03937
100
AcDbArc
 50
180.0
 51
347.3196165004428
  0
LINE
  5
5490
330
432D
100
AcDbEntity
  8
剖面线
100
AcDbLine
 10
697.3026395591307
 20
188.6850489837124
 30
0.0
 11
697.331158803035
 21
188.8118011788355
 31
0.0
  0
LINE
  5
5491
330
432D
100
AcDbEntity
  8
剖面线
100
AcDbLine
 10
697.331158803035
 20
188.8118011788355
 30
0.0
 11
697.3004309981564
 21
188.8187149349432
 31
0.0
  0
LINE
  5
5492
330
432D
100
AcDbEntity
  8
剖面线
100
AcDbLine
 10
697.2248598030359
 20
189.2055011788214
 30
0.0
 11
697.2248598030359
 21
188.6936911788252
 31
0.0
  0
ARC
  5
5493
330
432D
100
AcDbEntity
  8
剖面线
100
AcDbCircle
 10
697.3035998030329
 20
189.2055011788214
 30
0.0
 40
0.07874
100
AcDbArc
 50
90.0
 51
180.0
  0
ARC
  5
5494
330
432D
100
AcDbEntity
  8
剖面线
100
AcDbCircle
 10
697.3035998030329
 20
189.2055011788214
 30
0.0
 40
0.047244
100
AcDbArc
 50
90.0
 51
180.0
  0
LINE
  5
5495
330
432D
100
AcDbEntity
  8
剖面线
100
AcDbLine
 10
697.3035998030329
 20
189.2527451788227
 30
0.0
 11
697.6185598030362
 21
189.2527451788227
 31
0.0
  0
LINE
  5
5496
330
432D
100
AcDbEntity
  8
剖面线
100
AcDbLine
 10
697.3035998030329
 20
189.2842411788332
 30
0.0
 11
697.6185598030362
 21
189.2842411788332
 31
0.0
  0
ARC
  5
5497
330
432D
100
AcDbEntity
  8
剖面线
100
AcDbCircle
 10
697.6185598030362
 20
189.2055011788214
 30
0.0
 40
0.047244
100
AcDbArc
 50
0.0
 51
90.0
  0
ARC
  5
5498
330
432D
100
AcDbEntity
  8
剖面线
100
AcDbCircle
 10
697.6185598030362
 20
189.2055011788214
 30
0.0
 40
0.07874
100
AcDbArc
 50
0.0
 51
90.0
  0
LINE
  5
5499
330
432D
100
AcDbEntity
  8
剖面线
100
AcDbLine
 10
697.6658038030375
 20
189.2055011788214
 30
0.0
 11
697.6658038030375
 21
188.6936911788252
 31
0.0
  0
LINE
  5
549A
330
432D
100
AcDbEntity
  8
剖面线
100
AcDbLine
 10
697.6972998030336
 20
188.6936911788252
 30
0.0
 11
697.6972998030336
 21
189.2055011788214
 31
0.0
  0
ARC
  5
549B
330
432D
100
AcDbEntity
  8
剖面线
100
AcDbCircle
 10
697.657929803035
 20
188.6936911788252
 30
0.0
 40
0.03937
100
AcDbArc
 50
192.6803834995572
 51
0.0
  0
ARC
  5
549C
330
432D
100
AcDbEntity
  8
剖面线
100
AcDbCircle
 10
697.657929803035
 20
188.6936911788252
 30
0.0
 40
0.007874
100
AcDbArc
 50
192.6803834995572
 51
0.0
  0
LINE
  5
549D
330
432D
100
AcDbEntity
  8
剖面线
100
AcDbLine
 10
697.6502478518243
 20
188.6919627398054
 30
0.0
 11
697.6217286079202
 21
188.8187149349432
 31
0.0
  0
LINE
  5
549E
330
432D
100
AcDbEntity
  8
剖面线
100
AcDbLine
 10
697.5910008030345
 20
188.8118011788355
 30
0.0
 11
697.6195200469458
 21
188.6850489837124
 31
0.0
  0
LINE
  5
549F
330
432D
100
AcDbEntity
  8
剖面线
100
AcDbLine
 10
697.6217286079202
 20
188.8187149349432
 30
0.0
 11
697.5910008030345
 21
188.8118011788355
 31
0.0
  0
LINE
  5
54A0
330
432D
100
AcDbEntity
  8
剖面线
100
AcDbLine
 10
729.6582908551292
 20
188.6936911788252
 30
0.0
 11
729.6582908551292
 21
189.2055011788214
 31
0.0
  0
LINE
  5
54A1
330
432D
100
AcDbEntity
  8
剖面线
100
AcDbLine
 10
729.614215660012
 20
188.8187149349432
 30
0.0
 11
729.6427349039163
 21
188.6919627398054
 31
0.0
  0
ARC
  5
54A2
330
432D
100
AcDbEntity
  8
剖面线
100
AcDbCircle
 10
729.6504168551267
 20
188.6936911788252
 30
0.0
 40
0.007874
100
AcDbArc
 50
192.6803834995572
 51
0.0
  0
ARC
  5
54A3
330
432D
100
AcDbEntity
  8
剖面线
100
AcDbCircle
 10
729.6504168551267
 20
188.6936911788252
 30
0.0
 40
0.03937
100
AcDbArc
 50
192.6803834995572
 51
0.0
  0
LINE
  5
54A4
330
432D
100
AcDbEntity
  8
剖面线
100
AcDbLine
 10
729.6120070990376
 20
188.6850489837124
 30
0.0
 11
729.5834878551262
 21
188.8118011788355
 31
0.0
  0
LINE
  5
54A5
330
432D
100
AcDbEntity
  8
剖面线
100
AcDbLine
 10
729.5834878551262
 20
188.8118011788355
 30
0.0
 11
729.614215660012
 21
188.8187149349432
 31
0.0
  0
LINE
  5
54A6
330
432D
100
AcDbEntity
  8
剖面线
100
AcDbLine
 10
729.6897868551252
 20
189.2055011788214
 30
0.0
 11
729.6897868551252
 21
188.6936911788252
 31
0.0
  0
ARC
  5
54A7
330
432D
100
AcDbEntity
  8
剖面线
100
AcDbCircle
 10
729.6110468551281
 20
189.2055011788214
 30
0.0
 40
0.07874
100
AcDbArc
 50
0.0
 51
90.0
  0
ARC
  5
54A8
330
432D
100
AcDbEntity
  8
剖面线
100
AcDbCircle
 10
729.6110468551281
 20
189.2055011788214
 30
0.0
 40
0.047244
100
AcDbArc
 50
0.0
 51
90.0
  0
LINE
  5
54A9
330
432D
100
AcDbEntity
  8
剖面线
100
AcDbLine
 10
729.6110468551281
 20
189.2527451788227
 30
0.0
 11
729.2960868551321
 21
189.2527451788227
 31
0.0
  0
LINE
  5
54AA
330
432D
100
AcDbEntity
  8
剖面线
100
AcDbLine
 10
729.6110468551281
 20
189.2842411788332
 30
0.0
 11
729.2960868551321
 21
189.2842411788332
 31
0.0
  0
ARC
  5
54AB
330
432D
100
AcDbEntity
  8
剖面线
100
AcDbCircle
 10
729.2960868551321
 20
189.2055011788214
 30
0.0
 40
0.047244
100
AcDbArc
 50
90.0
 51
180.0
  0
ARC
  5
54AC
330
432D
100
AcDbEntity
  8
剖面线
100
AcDbCircle
 10
729.2960868551321
 20
189.2055011788214
 30
0.0
 40
0.07874
100
AcDbArc
 50
90.0
 51
180.0
  0
LINE
  5
54AD
330
432D
100
AcDbEntity
  8
剖面线
100
AcDbLine
 10
729.2488428551307
 20
189.2055011788214
 30
0.0
 11
729.2488428551307
 21
188.6936911788252
 31
0.0
  0
LINE
  5
54AE
330
432D
100
AcDbEntity
  8
剖面线
100
AcDbLine
 10
729.2173468551275
 20
188.6936911788252
 30
0.0
 11
729.2173468551275
 21
189.2055011788214
 31
0.0
  0
ARC
  5
54AF
330
432D
100
AcDbEntity
  8
剖面线
100
AcDbCircle
 10
729.2567168551262
 20
188.6936911788252
 30
0.0
 40
0.03937
100
AcDbArc
 50
180.0
 51
347.3196165004428
  0
ARC
  5
54B0
330
432D
100
AcDbEntity
  8
剖面线
100
AcDbCircle
 10
729.2567168551262
 20
188.6936911788252
 30
0.0
 40
0.007874
100
AcDbArc
 50
180.0
 51
347.3196165004428
  0
LINE
  5
54B1
330
432D
100
AcDbEntity
  8
剖面线
100
AcDbLine
 10
729.2643988063367
 20
188.6919627398054
 30
0.0
 11
729.2929180502482
 21
188.8187149349432
 31
0.0
  0
LINE
  5
54B2
330
432D
100
AcDbEntity
  8
剖面线
100
AcDbLine
 10
729.3236458551267
 20
188.8118011788355
 30
0.0
 11
729.2951266112225
 21
188.6850489837124
 31
0.0
  0
LINE
  5
54B3
330
432D
100
AcDbEntity
  8
剖面线
100
AcDbLine
 10
729.2929180502482
 20
188.8187149349432
 30
0.0
 11
729.3236458551267
 21
188.8118011788355
 31
0.0
  0
LINE
  5
54B4
330
432D
100
AcDbEntity
  8
剖面线
100
AcDbLine
 10
728.9073719307065
 20
189.0795171788377
 30
0.0
 11
729.143211721051
 21
189.3157371788292
 31
0.0
  0
LINE
  5
54B5
330
432D
100
AcDbEntity
  8
剖面线
100
AcDbLine
 10
728.9248470333781
 20
189.048021178827
 30
0.0
 11
729.1606868237225
 21
189.2842411788332
 31
0.0
  0
LINE
  5
54B6
330
432D
100
AcDbEntity
  8
0
100
AcDbLine
 10
728.9297333290827
 20
148.0392250864159
 30
0.0
 11
728.9297333290827
 21
160.873845086512
 31
0.0
  0
ARC
  5
54B7
330
432D
100
AcDbEntity
  8
0
100
AcDbCircle
 10
728.3785533290805
 20
148.0392250864159
 30
0.0
 40
0.55118
100
AcDbArc
 50
270.0
 51
0.0
  0
LINE
  5
54B8
330
432D
100
AcDbEntity
  8
0
100
AcDbLine
 10
698.5360933290808
 20
147.488045086421
 30
0.0
 11
728.3785533290805
 21
147.488045086421
 31
0.0
  0
ARC
  5
54B9
330
432D
100
AcDbEntity
  8
0
100
AcDbCircle
 10
698.5360933290808
 20
148.0392250864159
 30
0.0
 40
0.55118
100
AcDbArc
 50
180.0
 51
270.0
  0
LINE
  5
54BA
330
432D
100
AcDbEntity
  8
0
100
AcDbLine
 10
697.9849133290856
 20
160.8738450864247
 30
0.0
 11
697.9849133290856
 21
148.0392250864159
 31
0.0
  0
HATCH
  5
54BB
330
432D
100
AcDbEntity
  8
剖面线
 48
5.0
100
AcDbHatch
 10
0.0
 20
0.0
 30
0.0
210
0.0
220
0.0
230
1.0
  2
ANSI31
 70
     0
 71
     0
 91
        1
 92
        7
 72
     1
 73
     1
 93
       14
 10
697.6972998030336
 20
189.2055011788214
 42
0.4142090931800508
 10
697.6185610045152
 20
189.2842411788187
 42
0.0000038146972658
 10
697.6185598030362
 20
189.2842411788332
 42
0.0
 10
697.4361930728057
 20
189.2842411788332
 42
0.0
 10
697.4361930728057
 20
189.2527451788227
 42
0.0
 10
697.6185598030362
 20
189.2527451788227
 42
-0.4142135623713193
 10
697.6658038030375
 20
189.2055011788361
 42
0.0
 10
697.6658038030375
 20
188.6936911788252
 42
-0.8950427888177971
 10
697.6502478518243
 20
188.6919627398054
 42
0.0
 10
697.6217286079202
 20
188.8187149349432
 42
0.0
 10
697.5910008030345
 20
188.8118011788355
 42
0.0
 10
697.6195200469458
 20
188.6850489837124
 42
0.8894303225498207
 10
697.6972967276171
 20
188.693199092293
 42
0.003124847264985
 10
697.6972998030336
 20
188.6936911788252
 42
0.0
 97
        0
 75
     0
 76
     1
 52
90.0
 41
0.19685
 77
     0
 78
     1
 53
135.0
 43
-1010.190040148924
 44
3080.320902821044
 45
-0.0173992462345715
 46
-0.0173992462345715
 79
     0
 47
0.0791463826083633
 98
        1
 10
697.6824737014043
 20
188.9837990097911
  0
HATCH
  5
54BC
330
432D
100
AcDbEntity
  8
剖面线
 48
5.0
100
AcDbHatch
 10
0.0
 20
0.0
 30
0.0
210
0.0
220
0.0
230
1.0
  2
ANSI31
 70
     0
 71
     0
 91
        1
 92
        7
 72
     1
 73
     1
 93
       14
 10
697.2248598030359
 20
189.2055011788214
 42
-0.4142090931800508
 10
697.3035986015615
 20
189.2842411788187
 42
-0.0000038146972658
 10
697.3035998030329
 20
189.2842411788332
 42
0.0
 10
697.4859665332709
 20
189.2842411788332
 42
0.0
 10
697.4859665332709
 20
189.2527451788227
 42
0.0
 10
697.3035998030329
 20
189.2527451788227
 42
0.4142135623713193
 10
697.2563558030391
 20
189.2055011788361
 42
0.0
 10
697.2563558030391
 20
188.6936911788252
 42
0.8950427888177971
 10
697.271911754245
 20
188.6919627398054
 42
0.0
 10
697.3004309981564
 20
188.8187149349432
 42
0.0
 10
697.331158803035
 20
188.8118011788355
 42
0.0
 10
697.3026395591307
 20
188.6850489837124
 42
-0.8894303225498207
 10
697.2248628784593
 20
188.693199092293
 42
-0.003124847264985
 10
697.2248598030359
 20
188.6936911788252
 42
0.0
 97
        0
 75
     0
 76
     1
 52
90.0
 41
0.19685
 77
     0
 78
     1
 53
135.0
 43
-1010.190040148924
 44
3080.320902821044
 45
-0.0173992462345715
 46
-0.0173992462345715
 79
     0
 47
0.0791463826083633
 98
        1
 10
697.2396859046652
 20
188.9837990097911
  0
HATCH
  5
54BD
330
432D
100
AcDbEntity
  8
剖面线
100
AcDbHatch
 10
0.0
 20
0.0
 30
0.0
210
0.0
220
0.0
230
1.0
  2
ANSI31
 70
     0
 71
     0
 91
        1
 92
        7
 72
     1
 73
     1
 93
       14
 10
729.2173468551275
 20
189.2055011788361
 42
-0.4142090931800508
 10
729.2960856536532
 20
189.2842411788187
 42
-0.0000038146972658
 10
729.2960868551248
 20
189.2842411788332
 42
0.0
 10
729.4784535853627
 20
189.2842411788332
 42
0.0
 10
729.4784535853627
 20
189.2527451788373
 42
0.0
 10
729.2960868551248
 20
189.2527451788373
 42
0.4142135623713193
 10
729.2488428551307
 20
189.2055011788361
 42
0.0
 10
729.2488428551307
 20
188.6936911788252
 42
0.8950427888177971
 10
729.2643988063367
 20
188.6919627398054
 42
0.0
 10
729.2929180502482
 20
188.8187149349432
 42
0.0
 10
729.3236458551267
 20
188.8118011788355
 42
0.0
 10
729.2951266112225
 20
188.6850489837124
 42
-0.8894303225498207
 10
729.2173499305513
 20
188.693199092293
 42
-0.003124847264985
 10
729.2173468551275
 20
188.6936911788252
 42
0.0
 97
        0
 75
     0
 76
     1
 52
90.0
 41
0.19685
 77
     0
 78
     1
 53
45.00000000000844
 43
2437.104686806665
 44
3080.320902821306
 45
0.0173992462345741
 46
-0.0173992462345689
 79
     0
 47
0.0791463826083633
 98
        1
 10
729.2321729567569
 20
188.9837990097911
  0
HATCH
  5
54BE
330
432D
100
AcDbEntity
  8
剖面线
100
AcDbHatch
 10
0.0
 20
0.0
 30
0.0
210
0.0
220
0.0
230
1.0
  2
ANSI31
 70
     0
 71
     0
 91
        1
 92
        7
 72
     1
 73
     1
 93
       14
 10
729.6897868551252
 20
189.2055011788361
 42
0.4142090931800508
 10
729.6110480566071
 20
189.2842411788187
 42
0.0000038146972658
 10
729.6110468551281
 20
189.2842411788332
 42
0.0
 10
729.4286801248976
 20
189.2842411788332
 42
0.0
 10
729.4286801248976
 20
189.2527451788373
 42
0.0
 10
729.6110468551281
 20
189.2527451788373
 42
-0.4142135623713193
 10
729.6582908551292
 20
189.2055011788361
 42
0.0
 10
729.6582908551292
 20
188.6936911788252
 42
-0.8950427888177971
 10
729.6427349039163
 20
188.6919627398054
 42
0.0
 10
729.614215660012
 20
188.8187149349432
 42
0.0
 10
729.5834878551262
 20
188.8118011788355
 42
0.0
 10
729.6120070990376
 20
188.6850489837124
 42
0.8894303225498207
 10
729.689783779709
 20
188.693199092293
 42
0.003124847264985
 10
729.6897868551252
 20
188.6936911788252
 42
0.0
 97
        0
 75
     0
 76
     1
 52
90.0
 41
0.19685
 77
     0
 78
     1
 53
45.00000000000844
 43
2437.104686806665
 44
3080.320902821306
 45
0.0173992462345741
 46
-0.0173992462345689
 79
     0
 47
0.0791463826083633
 98
        1
 10
729.6749607534961
 20
188.9837990097911
  0
ARC
  5
54BF
330
432D
100
AcDbEntity
  8
0
100
AcDbCircle
 10
713.4573233290806
 20
384.4167050864262
 30
0.0
 40
236.22
100
AcDbArc
 50
267.2530212428731
 51
272.7469787571269
  0
ARC
  5
54C0
330
432D
100
AcDbEntity
  8
0
100
AcDbCircle
 10
816.803573329083
 20
155.9919650864238
 30
0.0
 40
118.11
100
AcDbArc
 50
177.8292381867309
 51
181.9931316154774
  0
ARC
  5
54C1
330
432D
100
AcDbEntity
  8
0
100
AcDbCircle
 10
610.1110733290854
 20
155.9919650864093
 30
0.0
 40
118.11
100
AcDbArc
 50
358.0068683845226
 51
2.17076181326903
  0
ARC
  5
54C2
330
432D
100
AcDbEntity
  8
0
100
AcDbCircle
 10
713.4573233290806
 20
-72.07844491357639
 30
0.0
 40
236.22
100
AcDbArc
 50
87.25620230135643
 51
92.74379769864358
  0
ARC
  5
54C3
330
432D
100
AcDbEntity
  8
0
100
AcDbCircle
 10
702.3190891771603
 20
160.3315085369312
 30
0.0
 40
3.543299999999999
100
AcDbArc
 50
92.74379769864358
 51
177.8292381867309
  0
ARC
  5
54C4
330
432D
100
AcDbEntity
  8
0
100
AcDbCircle
 10
702.3061857868827
 20
152.0073703892038
 30
0.0
 40
3.543299999999999
100
AcDbArc
 50
181.9931316154774
 51
267.2530212428731
  0
ARC
  5
54C5
330
432D
100
AcDbEntity
  8
0
100
AcDbCircle
 10
724.6084608712857
 20
152.0073703892038
 30
0.0
 40
3.543299999999999
100
AcDbArc
 50
272.7469787571269
 51
358.0068683845226
  0
ARC
  5
54C6
330
432D
100
AcDbEntity
  8
0
100
AcDbCircle
 10
724.5955574810079
 20
160.3315085369312
 30
0.0
 40
3.543299999999999
100
AcDbArc
 50
2.17076181326903
 51
87.25620230135643
  0
LINE
  5
54C7
330
432D
100
AcDbEntity
  8
0
100
AcDbLine
 10
725.1108433290876
 20
164.8108450864155
 30
0.0
 11
701.8038033290808
 21
164.8108450864155
 31
0.0
  0
LINE
  5
54C8
330
432D
100
AcDbEntity
  8
0
100
AcDbLine
 10
725.1108433290876
 20
164.6927350864197
 30
0.0
 11
701.8038033290808
 21
164.6927350864197
 31
0.0
  0
LINE
  5
54C9
330
432D
100
AcDbEntity
  8
0
100
AcDbLine
 10
697.8668033290825
 20
166.8580850864153
 30
0.0
 11
697.8668033290825
 21
160.8738450864247
 31
0.0
  0
ARC
  5
54CA
330
432D
100
AcDbEntity
  8
0
100
AcDbCircle
 10
701.8038033290808
 20
160.8738450864247
 30
0.0
 40
3.936999999999999
100
AcDbArc
 50
90.0
 51
180.0
  0
LINE
  5
54CB
330
432D
100
AcDbEntity
  8
0
100
AcDbLine
 10
728.3785533290805
 20
167.5273750864206
 30
0.0
 11
698.5360933290808
 21
167.5273750864206
 31
0.0
  0
ARC
  5
54CC
330
432D
100
AcDbEntity
  8
0
100
AcDbCircle
 10
698.5360933290808
 20
166.8580850864153
 30
0.0
 40
0.6692900000000001
100
AcDbArc
 50
90.0
 51
180.0
  0
ARC
  5
54CD
330
432D
100
AcDbEntity
  8
0
100
AcDbCircle
 10
728.3785533290805
 20
166.8580850864153
 30
0.0
 40
0.6692900000000001
100
AcDbArc
 50
0.0
 51
90.0
  0
LINE
  5
54CE
330
432D
100
AcDbEntity
  8
0
100
AcDbLine
 10
729.0478433290857
 20
160.9525850864219
 30
0.0
 11
729.0478433290857
 21
166.8580850864153
 31
0.0
  0
ARC
  5
54CF
330
432D
100
AcDbEntity
  8
0
100
AcDbCircle
 10
701.8038033290808
 20
160.8738450864247
 30
0.0
 40
3.81889
100
AcDbArc
 50
90.0
 51
180.0
  0
LINE
  5
54D0
330
432D
100
AcDbEntity
  8
0
100
AcDbLine
 10
729.0478433290857
 20
166.8580850864299
 30
0.0
 11
729.0478433290857
 21
160.8738450864247
 31
0.0
  0
ARC
  5
54D1
330
432D
100
AcDbEntity
  8
0
100
AcDbCircle
 10
725.1108433290876
 20
160.8738450864247
 30
0.0
 40
3.936999999999999
100
AcDbArc
 50
0.0
 51
90.0
  0
ARC
  5
54D2
330
432D
100
AcDbEntity
  8
0
100
AcDbCircle
 10
725.1108433290876
 20
160.8738450864247
 30
0.0
 40
3.81889
100
AcDbArc
 50
0.0
 51
90.0
  0
ARC
  5
54D3
330
432D
100
AcDbEntity
  8
剖面线
100
AcDbCircle
 10
713.4573233290806
 20
416.5129001976492
 30
0.0
 40
236.22
100
AcDbArc
 50
266.9623484737987
 51
269.4461321694273
  0
ARC
  5
54D4
330
432D
100
AcDbEntity
  8
剖面线
100
AcDbCircle
 10
713.4573233290806
 20
416.5129001976492
 30
0.0
 40
236.22
100
AcDbArc
 50
270.5538678305725
 51
273.0376515262013
  0
ARC
  5
54D5
330
432D
100
AcDbEntity
  8
剖面线
100
AcDbCircle
 10
713.4573233290806
 20
416.5129001976492
 30
0.0
 40
236.251496
100
AcDbArc
 50
266.9623484737987
 51
269.4422992086836
  0
ARC
  5
54D6
330
432D
100
AcDbEntity
  8
剖面线
100
AcDbCircle
 10
713.4573233290806
 20
416.5129001976492
 30
0.0
 40
236.251496
100
AcDbArc
 50
270.5577007913163
 51
273.0376515262013
  0
ARC
  5
54D7
330
432D
100
AcDbEntity
  8
剖面线
100
AcDbCircle
 10
701.0438239371664
 20
182.5905406740384
 30
0.0
 40
1.968499999999999
100
AcDbArc
 50
183.9999999977997
 51
266.9623484737987
  0
ARC
  5
54D8
330
432D
100
AcDbEntity
  8
剖面线
100
AcDbCircle
 10
725.8708227209949
 20
182.5905406740384
 30
0.0
 40
1.968499999999999
100
AcDbArc
 50
273.0376515262013
 51
356.0000000022001
  0
ARC
  5
54D9
330
432D
100
AcDbEntity
  8
剖面线
100
AcDbCircle
 10
725.8708227209949
 20
182.5905406740384
 30
0.0
 40
1.999995999999999
100
AcDbArc
 50
273.0376515262013
 51
356.0000000022001
  0
ARC
  5
54DA
330
432D
100
AcDbEntity
  8
剖面线
100
AcDbCircle
 10
701.0438239371664
 20
182.5905406740384
 30
0.0
 40
1.999995999999999
100
AcDbArc
 50
183.9999999977997
 51
266.9623484737987
  0
LINE
  5
54DB
330
432D
100
AcDbEntity
  8
0
100
AcDbLine
 10
696.9612933290857
 20
129.1377734040496
 30
0.0
 11
696.9612933290857
 21
110.3189134040502
 31
0.0
  0
LINE
  5
54DC
330
432D
100
AcDbEntity
  8
0
100
AcDbLine
 10
728.3785533290805
 20
130.7125734040518
 30
0.0
 11
698.5360933290808
 21
130.7125734040518
 31
0.0
  0
LINE
  5
54DD
330
432D
100
AcDbEntity
  8
0
100
AcDbLine
 10
698.5360933290808
 20
108.7441134040481
 30
0.0
 11
728.3785533290805
 21
108.7441134040481
 31
0.0
  0
LINE
  5
54DE
330
432D
100
AcDbEntity
  8
0
100
AcDbLine
 10
729.9533533290826
 20
110.3189134040502
 30
0.0
 11
729.9533533290826
 21
129.1377734040496
 31
0.0
  0
CIRCLE
  5
54DF
330
432D
100
AcDbEntity
  8
0
100
AcDbCircle
 10
713.4573233290806
 20
120.5551134040496
 30
0.0
 40
2.283459999999999
  0
CIRCLE
  5
54E0
330
432D
100
AcDbEntity
  8
0
100
AcDbCircle
 10
713.4573233290806
 20
120.5551134040496
 30
0.0
 40
2.16535
  0
CIRCLE
  5
54E1
330
432D
100
AcDbEntity
  8
0
100
AcDbCircle
 10
713.4573233290806
 20
120.5551134040496
 30
0.0
 40
1.81102
  0
CIRCLE
  5
54E2
330
432D
100
AcDbEntity
  8
0
100
AcDbCircle
 10
717.473063329083
 20
128.4291134040602
 30
0.0
 40
0.6889750000000002
  0
CIRCLE
  5
54E3
330
432D
100
AcDbEntity
  8
0
100
AcDbCircle
 10
713.4573233290806
 20
128.4291134040602
 30
0.0
 40
0.6889750000000002
  0
CIRCLE
  5
54E4
330
432D
100
AcDbEntity
  8
0
100
AcDbCircle
 10
709.4415833290852
 20
128.4291134040602
 30
0.0
 40
0.6889750000000002
  0
ARC
  5
54E5
330
432D
100
AcDbEntity
  8
0
100
AcDbCircle
 10
698.5360933290808
 20
110.3189134040502
 30
0.0
 40
1.574799999999999
100
AcDbArc
 50
180.0
 51
270.0
  0
ARC
  5
54E6
330
432D
100
AcDbEntity
  8
0
100
AcDbCircle
 10
698.5360933290808
 20
129.1377734040496
 30
0.0
 40
1.574799999999999
100
AcDbArc
 50
90.0
 51
180.0
  0
ARC
  5
54E7
330
432D
100
AcDbEntity
  8
0
100
AcDbCircle
 10
728.3785533290805
 20
129.1377734040496
 30
0.0
 40
1.574799999999999
100
AcDbArc
 50
0.0
 51
90.0
  0
ARC
  5
54E8
330
432D
100
AcDbEntity
  8
0
100
AcDbCircle
 10
728.3785533290805
 20
110.3189134040502
 30
0.0
 40
1.574799999999999
100
AcDbArc
 50
270.0
 51
0.0
  0
ARC
  5
54E9
330
432D
100
AcDbEntity
  8
0
100
AcDbCircle
 10
728.3785533290805
 20
110.3189134040502
 30
0.0
 40
1.37795
100
AcDbArc
 50
270.0
 51
0.0
  0
LINE
  5
54EA
330
432D
100
AcDbEntity
  8
0
100
AcDbLine
 10
698.5360933290808
 20
108.9409634040556
 30
0.0
 11
728.3785533290805
 21
108.9409634040556
 31
0.0
  0
LINE
  5
54EB
330
432D
100
AcDbEntity
  8
0
100
AcDbLine
 10
729.7565033290822
 20
110.3189134040502
 30
0.0
 11
729.7565033290822
 21
129.1377734040496
 31
0.0
  0
ARC
  5
54EC
330
432D
100
AcDbEntity
  8
0
100
AcDbCircle
 10
728.3785533290805
 20
129.1377734040496
 30
0.0
 40
1.37795
100
AcDbArc
 50
0.0
 51
90.0
  0
LINE
  5
54ED
330
432D
100
AcDbEntity
  8
0
100
AcDbLine
 10
728.3785533290805
 20
130.5157234040588
 30
0.0
 11
698.5360933290808
 21
130.5157234040588
 31
0.0
  0
ARC
  5
54EE
330
432D
100
AcDbEntity
  8
0
100
AcDbCircle
 10
698.5360933290808
 20
129.1377734040496
 30
0.0
 40
1.37795
100
AcDbArc
 50
90.0
 51
180.0
  0
LINE
  5
54EF
330
432D
100
AcDbEntity
  8
0
100
AcDbLine
 10
697.1581433290861
 20
129.1377734040496
 30
0.0
 11
697.1581433290861
 21
110.3189134040502
 31
0.0
  0
ARC
  5
54F0
330
432D
100
AcDbEntity
  8
0
100
AcDbCircle
 10
698.5360933290808
 20
110.3189134040502
 30
0.0
 40
1.37795
100
AcDbArc
 50
180.0
 51
270.0
  0
ARC
  5
54F1
330
432D
100
AcDbEntity
  8
0
100
AcDbCircle
 10
698.5360933290808
 20
110.3189134040502
 30
0.0
 40
0.7874000000000001
100
AcDbArc
 50
180.0
 51
270.0
  0
LINE
  5
54F2
330
432D
100
AcDbEntity
  8
0
100
AcDbLine
 10
697.7486933290796
 20
129.1377734040496
 30
0.0
 11
697.7486933290796
 21
110.3189134040502
 31
0.0
  0
LINE
  5
54F3
330
432D
100
AcDbEntity
  8
0
100
AcDbLine
 10
698.5360933290808
 20
109.5315134040492
 30
0.0
 11
728.3785533290805
 21
109.5315134040492
 31
0.0
  0
ARC
  5
54F4
330
432D
100
AcDbEntity
  8
0
100
AcDbCircle
 10
728.3785533290805
 20
110.3189134040502
 30
0.0
 40
0.7874000000000001
100
AcDbArc
 50
270.0
 51
0.0
  0
LINE
  5
54F5
330
432D
100
AcDbEntity
  8
0
100
AcDbLine
 10
729.1659533290816
 20
110.3189134040502
 30
0.0
 11
729.1659533290816
 21
129.1377734040496
 31
0.0
  0
ARC
  5
54F6
330
432D
100
AcDbEntity
  8
0
100
AcDbCircle
 10
728.3785533290805
 20
129.1377734040496
 30
0.0
 40
0.7874000000000001
100
AcDbArc
 50
0.0
 51
90.0
  0
LINE
  5
54F7
330
432D
100
AcDbEntity
  8
0
100
AcDbLine
 10
728.3785533290805
 20
129.9251734040507
 30
0.0
 11
698.5360933290808
 21
129.9251734040507
 31
0.0
  0
ARC
  5
54F8
330
432D
100
AcDbEntity
  8
0
100
AcDbCircle
 10
698.5360933290808
 20
129.1377734040496
 30
0.0
 40
0.7874000000000001
100
AcDbArc
 50
90.0
 51
180.0
  0
LINE
  5
54F9
330
432D
100
AcDbEntity
  8
0
100
AcDbLine
 10
728.9297333290827
 20
110.3189134040502
 30
0.0
 11
728.9297333290827
 21
123.1535334041463
 31
0.0
  0
ARC
  5
54FA
330
432D
100
AcDbEntity
  8
0
100
AcDbCircle
 10
728.3785533290805
 20
110.3189134040502
 30
0.0
 40
0.55118
100
AcDbArc
 50
270.0
 51
0.0
  0
LINE
  5
54FB
330
432D
100
AcDbEntity
  8
0
100
AcDbLine
 10
698.5360933290808
 20
109.7677334040553
 30
0.0
 11
728.3785533290805
 21
109.7677334040553
 31
0.0
  0
ARC
  5
54FC
330
432D
100
AcDbEntity
  8
0
100
AcDbCircle
 10
698.5360933290808
 20
110.3189134040502
 30
0.0
 40
0.55118
100
AcDbArc
 50
180.0
 51
270.0
  0
LINE
  5
54FD
330
432D
100
AcDbEntity
  8
0
100
AcDbLine
 10
697.9849133290856
 20
123.1535334040589
 30
0.0
 11
697.9849133290856
 21
110.3189134040502
 31
0.0
  0
ARC
  5
54FE
330
432D
100
AcDbEntity
  8
0
100
AcDbCircle
 10
713.4573233290806
 20
346.6963934040604
 30
0.0
 40
236.22
100
AcDbArc
 50
267.2530212428731
 51
272.7469787571269
  0
ARC
  5
54FF
330
432D
100
AcDbEntity
  8
0
100
AcDbCircle
 10
816.803573329083
 20
118.2716534040581
 30
0.0
 40
118.11
100
AcDbArc
 50
177.8292381867309
 51
181.9931316154774
  0
ARC
  5
5500
330
432D
100
AcDbEntity
  8
0
100
AcDbCircle
 10
610.1110733290854
 20
118.2716534040436
 30
0.0
 40
118.11
100
AcDbArc
 50
358.0068683845226
 51
2.17076181326903
  0
ARC
  5
5501
330
432D
100
AcDbEntity
  8
0
100
AcDbCircle
 10
713.4573233290806
 20
-109.7987565959421
 30
0.0
 40
236.22
100
AcDbArc
 50
87.25620230135643
 51
92.74379769864358
  0
ARC
  5
5502
330
432D
100
AcDbEntity
  8
0
100
AcDbCircle
 10
702.3190891771603
 20
122.6111968545655
 30
0.0
 40
3.543299999999999
100
AcDbArc
 50
92.74379769864358
 51
177.8292381867309
  0
ARC
  5
5503
330
432D
100
AcDbEntity
  8
0
100
AcDbCircle
 10
702.3061857868827
 20
114.2870587068381
 30
0.0
 40
3.543299999999999
100
AcDbArc
 50
181.9931316154774
 51
267.2530212428731
  0
ARC
  5
5504
330
432D
100
AcDbEntity
  8
0
100
AcDbCircle
 10
724.6084608712857
 20
114.2870587068381
 30
0.0
 40
3.543299999999999
100
AcDbArc
 50
272.7469787571269
 51
358.0068683845226
  0
ARC
  5
5505
330
432D
100
AcDbEntity
  8
0
100
AcDbCircle
 10
724.5955574810079
 20
122.6111968545655
 30
0.0
 40
3.543299999999999
100
AcDbArc
 50
2.17076181326903
 51
87.25620230135643
  0
LINE
  5
5506
330
432D
100
AcDbEntity
  8
0
100
AcDbLine
 10
725.1108433290876
 20
127.0905334040498
 30
0.0
 11
701.8038033290808
 21
127.0905334040498
 31
0.0
  0
LINE
  5
5507
330
432D
100
AcDbEntity
  8
0
100
AcDbLine
 10
725.1108433290876
 20
126.972423404054
 30
0.0
 11
701.8038033290808
 21
126.972423404054
 31
0.0
  0
LINE
  5
5508
330
432D
100
AcDbEntity
  8
0
100
AcDbLine
 10
697.8668033290825
 20
129.1377734040496
 30
0.0
 11
697.8668033290825
 21
123.1535334040589
 31
0.0
  0
ARC
  5
5509
330
432D
100
AcDbEntity
  8
0
100
AcDbCircle
 10
701.8038033290808
 20
123.1535334040589
 30
0.0
 40
3.936999999999999
100
AcDbArc
 50
90.0
 51
180.0
  0
LINE
  5
550A
330
432D
100
AcDbEntity
  8
0
100
AcDbLine
 10
728.3785533290805
 20
129.8070634040549
 30
0.0
 11
698.5360933290808
 21
129.8070634040549
 31
0.0
  0
ARC
  5
550B
330
432D
100
AcDbEntity
  8
0
100
AcDbCircle
 10
698.5360933290808
 20
129.1377734040496
 30
0.0
 40
0.6692900000000001
100
AcDbArc
 50
90.0
 51
180.0
  0
ARC
  5
550C
330
432D
100
AcDbEntity
  8
0
100
AcDbCircle
 10
728.3785533290805
 20
129.1377734040496
 30
0.0
 40
0.6692900000000001
100
AcDbArc
 50
0.0
 51
90.0
  0
LINE
  5
550D
330
432D
100
AcDbEntity
  8
0
100
AcDbLine
 10
729.0478433290857
 20
123.2322734040562
 30
0.0
 11
729.0478433290857
 21
129.1377734040496
 31
0.0
  0
ARC
  5
550E
330
432D
100
AcDbEntity
  8
0
100
AcDbCircle
 10
701.8038033290808
 20
123.1535334040589
 30
0.0
 40
3.81889
100
AcDbArc
 50
90.0
 51
180.0
  0
LINE
  5
550F
330
432D
100
AcDbEntity
  8
0
100
AcDbLine
 10
729.0478433290857
 20
129.1377734040496
 30
0.0
 11
729.0478433290857
 21
123.1535334040589
 31
0.0
  0
ARC
  5
5510
330
432D
100
AcDbEntity
  8
0
100
AcDbCircle
 10
725.1108433290876
 20
123.1535334040589
 30
0.0
 40
3.936999999999999
100
AcDbArc
 50
0.0
 51
90.0
  0
ARC
  5
5511
330
432D
100
AcDbEntity
  8
0
100
AcDbCircle
 10
725.1108433290876
 20
123.1535334040589
 30
0.0
 40
3.81889
100
AcDbArc
 50
0.0
 51
90.0
  0
LWPOLYLINE
  5
5512
330
432D
100
AcDbEntity
  8
截面层
 62
     1
100
AcDbPolyline
 90
        8
 70
     1
 43
0.0
 10
728.3785533290877
 20
108.9803334040542
 42
0.4142135623730951
 10
729.7171333290837
 20
110.3189134040502
 10
729.7171333290837
 20
129.1377734040496
 42
0.4142135623730951
 10
728.3785533290877
 20
130.4763534040456
 10
698.5360933290808
 20
130.4763534040456
 42
0.4142135623730951
 10
697.1975133290848
 20
129.1377734040496
 10
697.1975133290848
 20
110.3189134040502
 42
0.4142135623730951
 10
698.5360933290808
 20
108.9803334040542
  0
INSERT
  5
5515
330
432D
100
AcDbEntity
  8
0
100
AcDbBlockReference
  2
*U18
 10
261.9221198128823
 20
-0.4218952550301652
 30
0.0
  0
INSERT
  5
5516
330
432D
100
AcDbEntity
  8
0
100
AcDbBlockReference
  2
*U19
 10
263.4191833736613
 20
-10.96770029049571
 30
0.0
  0
LWPOLYLINE
  5
5517
330
432D
100
AcDbEntity
  8
截面层
 62
     1
100
AcDbPolyline
 90
        8
 70
     1
 43
0.0
 10
726.9818415024396
 20
71.00605332151303
 42
0.4142135623730951
 10
728.3204215024356
 20
72.34463332150902
 10
728.3204215024356
 20
91.16349332150845
 42
0.4142135623730951
 10
726.9818415024396
 20
92.50207332150443
 10
697.1393815024324
 20
92.50207332150443
 42
0.4142135623730951
 10
695.8008015024363
 20
91.16349332150845
 10
695.8008015024363
 20
72.34463332150902
 42
0.4142135623730951
 10
697.1393815024324
 20
71.00605332151303
  0
INSERT
  5
5526
330
432D
100
AcDbEntity
  8
0
100
AcDbBlockReference
  2
A$C2558637D
 10
704.0933497000047
 20
66.41204801438504
 30
0.0
  0
INSERT
  5
5527
330
432D
100
AcDbEntity
  8
0
100
AcDbBlockReference
  2
A$C2558637D
 10
703.9067952788565
 20
104.6466884407508
 30
0.0
  0
DIMENSION
  5
5528
330
432D
100
AcDbEntity
  8
0
100
AcDbDimension
  2
*D49
 10
728.2210733290855
 20
144.711936711071
 30
0.0
 11
713.4573233290843
 21
144.711936711071
 31
0.0
 70
    32
 71
     5
 42
29.52750000000265
  3
副本STANDARD
100
AcDbAlignedDimension
 13
698.6935733290829
 23
155.9919650864239
 33
0.0
 14
728.2210733290855
 24
155.9919650864093
 34
0.0
100
AcDbRotatedDimension
1001
ACAD
1000
DSTYLE
1002
{
1070
    49
1040
1.25
1070
    50
1040
1.570796326794896
1070
    90
1070
     1
1002
}
  0
DIMENSION
  5
5536
330
432D
100
AcDbEntity
  8
0
100
AcDbDimension
  2
*D50
 10
729.9533533290826
 20
142.8533639043358
 30
0.0
 11
713.4573233290816
 21
142.8533639043358
 31
0.0
 70
    32
 71
     5
 42
32.99206000000209
  3
副本STANDARD
100
AcDbAlignedDimension
 13
696.9612933290806
 23
148.0392250864159
 33
0.0
 14
729.9533533290826
 24
148.0392250864159
 34
0.0
100
AcDbRotatedDimension
1001
ACAD
1000
DSTYLE
1002
{
1070
    49
1040
1.25
1070
    50
1040
1.570796326794896
1070
    90
1070
     1
1002
}
  0
DIMENSION
  5
5544
330
432D
100
AcDbEntity
  8
0
100
AcDbDimension
  2
*D51
 10
731.5404214344073
 20
164.1415550864236
 30
0.0
 11
731.5404214344073
 21
156.1691300864249
 31
0.0
 70
    32
 71
     5
 42
15.94484999999759
  3
副本STANDARD
100
AcDbAlignedDimension
 13
713.4573233290872
 23
148.196705086426
 33
0.0
 14
713.4573233290876
 24
164.1415550864236
 34
0.0
 50
90.0
100
AcDbRotatedDimension
1001
ACAD
1000
DSTYLE
1002
{
1070
    49
1040
1.25
1070
    50
1040
1.570796326794896
1070
    90
1070
     1
1002
}
  0
DIMENSION
  5
5552
330
432D
100
AcDbEntity
  8
0
100
AcDbDimension
  2
*D52
 10
733.5902335406546
 20
168.4328850864175
 30
0.0
 11
733.5902335406546
 21
156.1848114798201
 31
0.0
 70
   160
 71
     5
 42
21.9684600000036
  3
副本STANDARD
100
AcDbAlignedDimension
 13
728.2210733290855
 23
146.4644250864139
 33
0.0
 14
728.2210733290855
 24
168.4328850864175
 34
0.0
 50
90.0
100
AcDbRotatedDimension
1001
ACAD
1000
DSTYLE
1002
{
1070
    49
1040
1.25
1070
    50
1040
1.570796326794896
1070
    90
1070
     1
1002
}
  0
DIMENSION
  5
55A8
330
432D
100
AcDbEntity
  8
0
100
AcDbDimension
  2
*D53
 10
731.8242828689508
 20
180.3157371788292
 30
0.0
 11
731.8242828689508
 21
184.8157371788293
 31
0.0
 70
    32
 71
     5
 42
9.0
  3
副本STANDARD
100
AcDbAlignedDimension
 13
729.7595046292566
 23
189.3157371788292
 33
0.0
 14
729.7595046292566
 24
180.3157371788292
 34
0.0
 50
90.0
100
AcDbRotatedDimension
  0
ENDSEC
  0
SECTION
  2
OBJECTS
  0
DICTIONARY
  5
42C3
330
0
100
AcDbDictionary
281
     1
  3
ACAD_2007HEADERVARS_RT
350
5714
  3
ACAD_COLOR
350
4324
  3
ACAD_GROUP
350
42C4
  3
ACAD_LAYOUT
350
4323
  3
ACAD_MATERIAL
350
42C7
  3
ACAD_MLEADERSTYLE
350
4327
  3
ACAD_MLINESTYLE
350
4320
  3
ACAD_PLOTSETTINGS
350
4322
  3
ACAD_PLOTSTYLENAME
350
42C5
  3
ACAD_SCALELIST
350
42F4
  3
ACAD_TABLESTYLE
350
4325
  3
ACAD_VISUALSTYLE
350
42E0
  3
ACDB_RECOMPOSE_DATA
350
5672
  3
AcDbVariableDictionary
350
49F2
  3
AcmDictionary
350
44C0
  3
AEC_PROPERTY_SET_DEFS
350
46F4
  3
AMG
350
4470
  3
AMGSNAPSETTINGS
350
44E9
  3
DWGPROPS
350
5713
  3
lxx_dict
350
44E4
  0
DICTIONARY
  5
46A5
330
42B9
100
AcDbDictionary
280
     1
281
     1
  3
ACAD_LAYERSTATES
360
46A6
  0
DICTIONARY
  5
44F0
330
4316
100
AcDbDictionary
280
     1
281
     1
  3
ADSK_XREC_LAYER_RECONCILED
360
44F1
  0
DICTIONARY
  5
44F2
330
4341
100
AcDbDictionary
280
     1
281
     1
  3
ADSK_XREC_LAYER_RECONCILED
360
44F3
  0
DICTIONARY
  5
44F4
330
4342
100
AcDbDictionary
280
     1
281
     1
  3
ADSK_XREC_LAYER_RECONCILED
360
44F5
  0
DICTIONARY
  5
44F6
330
4344
100
AcDbDictionary
280
     1
281
     1
  3
ADSK_XREC_LAYER_RECONCILED
360
44F7
  0
DICTIONARY
  5
44F8
330
4345
100
AcDbDictionary
280
     1
281
     1
  3
ADSK_XREC_LAYER_RECONCILED
360
44F9
  0
DICTIONARY
  5
44FA
330
4347
100
AcDbDictionary
280
     1
281
     1
  3
ADSK_XREC_LAYER_RECONCILED
360
44FB
  0
DICTIONARY
  5
536A
330
5369
100
AcDbDictionary
280
     1
281
     1
  0
DICTIONARY
  5
506A
330
432D
100
AcDbDictionary
280
     1
281
     1
  3
ACAD_SORTENTS
360
506B
  0
DICTIONARY
  5
5522
330
551F
100
AcDbDictionary
280
     1
281
     1
  3
ACAD_SORTENTS
360
5523
  0
DICTIONARY
  5
5714
102
{ACAD_REACTORS
330
42C3
102
}
330
42C3
100
AcDbDictionary
281
     1
  3
DIMARCSYM
350
5716
  3
DIMFXL
350
5715
  3
DIMJOGANG
350
5717
  3
DIMLTEX1
350
5719
  3
DIMLTEX2
350
571A
  3
DIMLTYPE
350
5718
  0
DICTIONARY
  5
4324
102
{ACAD_REACTORS
330
42C3
102
}
330
42C3
100
AcDbDictionary
281
     1
  0
DICTIONARY
  5
42C4
102
{ACAD_REACTORS
330
42C3
102
}
330
42C3
100
AcDbDictionary
281
     1
  0
DICTIONARY
  5
4323
102
{ACAD_REACTORS
330
42C3
102
}
330
42C3
100
AcDbDictionary
281
     1
  3
Model
350
4330
  3
布局1
350
432C
  0
DICTIONARY
  5
42C7
102
{ACAD_REACTORS
330
42C3
102
}
330
42C3
100
AcDbDictionary
281
     1
  3
ByBlock
350
42D0
  3
ByLayer
350
42C8
  3
Global
350
42D8
  0
DICTIONARY
  5
4327
102
{ACAD_REACTORS
330
42C3
102
}
330
42C3
100
AcDbDictionary
281
     1
  3
Standard
350
4328
  0
DICTIONARY
  5
4320
102
{ACAD_REACTORS
330
42C3
102
}
330
42C3
100
AcDbDictionary
281
     1
  3
Standard
350
4321
  0
DICTIONARY
  5
4322
102
{ACAD_REACTORS
330
42C3
102
}
330
42C3
100
AcDbDictionary
281
     1
  0
ACDBDICTIONARYWDFLT
  5
42C5
102
{ACAD_REACTORS
330
42C3
102
}
330
42C3
100
AcDbDictionary
281
     1
  3
Normal
350
42C6
100
AcDbDictionaryWithDefault
340
42C6
  0
DICTIONARY
  5
42F4
102
{ACAD_REACTORS
330
42C3
102
}
330
42C3
100
AcDbDictionary
281
     1
  3
A0
350
42F5
  3
A1
350
42F6
  3
A2
350
42F7
  3
A3
350
42F8
  3
A4
350
42F9
  3
A5
350
42FA
  3
A6
350
42FB
  3
A7
350
42FC
  3
A8
350
42FD
  3
A9
350
42FE
  3
B0
350
42FF
  3
B1
350
4300
  3
B2
350
4301
  3
B3
350
4302
  3
B4
350
4303
  3
B5
350
4304
  3
B6
350
4305
  3
B7
350
4306
  3
B8
350
4307
  3
B9
350
4308
  3
C0
350
4309
  3
C1
350
430A
  3
C2
350
430B
  3
C3
350
430C
  3
C4
350
430D
  3
C5
350
430E
  3
C6
350
430F
  3
C7
350
4310
  3
C8
350
4311
  3
C9
350
4312
  3
D0
350
4313
  3
D1
350
4314
  3
D2
350
4315
  0
DICTIONARY
  5
4325
102
{ACAD_REACTORS
330
42C3
102
}
330
42C3
100
AcDbDictionary
281
     1
  3
Standard
350
4326
  0
DICTIONARY
  5
42E0
102
{ACAD_REACTORS
330
42C3
102
}
330
42C3
100
AcDbDictionary
281
     1
  3
2dWireframe
350
42E6
  3
3D Hidden
350
42E8
  3
3dWireframe
350
42E7
  3
Basic
350
42E5
  3
Brighten
350
42EC
  3
ColorChange
350
42F0
  3
Conceptual
350
42E9
  3
Dim
350
42EB
  3
EdgeColorOff
350
42F3
  3
Facepattern
350
42EF
  3
Flat
350
42E1
  3
FlatWithEdges
350
42E2
  3
Gouraud
350
42E3
  3
GouraudWithEdges
350
42E4
  3
JitterOff
350
42F1
  3
Linepattern
350
42EE
  3
OverhangOff
350
42F2
  3
Realistic
350
42EA
  3
Thicken
350
42ED
  0
XRECORD
  5
5672
102
{ACAD_REACTORS
330
42C3
102
}
330
42C3
100
AcDbXrecord
280
     1
 90
        1
330
4326
  0
DICTIONARY
  5
49F2
102
{ACAD_REACTORS
330
42C3
102
}
330
42C3
100
AcDbDictionary
281
     1
  3
CANNOSCALE
350
49F5
  3
CMLEADERSTYLE
350
49F4
  3
CTABLESTYLE
350
49F3
  3
DIMASSOC
350
49F8
  3
INDEXCTL
350
49F7
  3
SORTENTS
350
49F6
  3
XCLIPFRAME
350
5670
  0
DICTIONARY
  5
44C0
102
{ACAD_REACTORS
330
42C3
102
}
330
42C3
100
AcDbDictionary
281
     1
  3
AcmStdDictionary
350
44CA
  0
DICTIONARY
  5
46F4
102
{ACAD_REACTORS
330
42C3
102
}
330
42C3
100
AcDbDictionary
281
     1
  0
DICTIONARY
  5
4470
102
{ACAD_REACTORS
330
42C3
102
}
330
42C3
100
AcDbDictionary
281
     1
  0
DICTIONARY
  5
44E9
102
{ACAD_REACTORS
330
42C3
102
}
330
42C3
100
AcDbDictionary
281
     1
  0
XRECORD
  5
5713
102
{ACAD_REACTORS
330
42C3
102
}
330
42C3
100
AcDbXrecord
280
     1
  1
DWGPROPS COOKIE
  2

  3

  4

  6

  7

  8
Administrator
  9

300
=
301
=
302
=
303
=
304
=
305
=
306
=
307
=
308
=
309
=
 40
0.2063035300925926
 41
2455434.724808658
 42
2458649.344921354
  1

 90
        0
  0
DICTIONARY
  5
44E4
102
{ACAD_REACTORS
330
42C3
102
}
330
42C3
100
AcDbDictionary
281
     1
  3
lxx_dimth
350
44E5
  0
DICTIONARY
  5
46A6
102
{ACAD_REACTORS
330
46A5
102
}
330
46A5
100
AcDbDictionary
281
     1
  0
XRECORD
  5
44F1
102
{ACAD_REACTORS
330
44F0
102
}
330
44F0
100
AcDbXrecord
280
     1
290
     1
  0
XRECORD
  5
44F3
102
{ACAD_REACTORS
330
44F2
102
}
330
44F2
100
AcDbXrecord
280
     1
290
     1
  0
XRECORD
  5
44F5
102
{ACAD_REACTORS
330
44F4
102
}
330
44F4
100
AcDbXrecord
280
     1
290
     1
  0
XRECORD
  5
44F7
102
{ACAD_REACTORS
330
44F6
102
}
330
44F6
100
AcDbXrecord
280
     1
290
     1
  0
XRECORD
  5
44F9
102
{ACAD_REACTORS
330
44F8
102
}
330
44F8
100
AcDbXrecord
280
     1
290
     1
  0
XRECORD
  5
44FB
102
{ACAD_REACTORS
330
44FA
102
}
330
44FA
100
AcDbXrecord
280
     1
290
     1
  0
SORTENTSTABLE
  5
506B
102
{ACAD_REACTORS
330
506A
102
}
330
506A
100
AcDbSortentsTable
330
432D
331
54CD
  5
54CD
331
5504
  5
5504
331
548E
  5
548E
331
54D5
  5
54D5
331
550C
  5
550C
331
5496
  5
5496
331
549E
  5
549E
331
54DD
  5
54DD
331
54A6
  5
54A6
331
54E5
  5
54E5
331
5451
  5
5451
331
5459
  5
5459
331
5461
  5
5461
331
5469
  5
5469
331
54AE
  5
54AE
331
54ED
  5
54ED
331
54F5
  5
54F5
331
54B6
  5
54B6
331
54BE
  5
54BE
331
54FD
  5
54FD
331
54C6
  5
54C6
331
5471
  5
5471
331
5479
  5
5479
331
5481
  5
5481
331
544A
  5
544A
331
548F
  5
548F
331
54CE
  5
54CE
331
5505
  5
5505
331
550D
  5
550D
331
5497
  5
5497
331
54D6
  5
54D6
331
54DE
  5
54DE
331
549F
  5
549F
331
54E6
  5
54E6
331
54A7
  5
54A7
331
5452
  5
5452
331
545A
  5
545A
331
5462
  5
5462
331
546A
  5
546A
331
54AF
  5
54AF
331
54EE
  5
54EE
331
54B7
  5
54B7
331
54F6
  5
54F6
331
54BF
  5
54BF
331
54FE
  5
54FE
331
54C7
  5
54C7
331
5472
  5
5472
331
547A
  5
547A
331
5482
  5
5482
331
544B
  5
544B
331
5488
  5
5488
331
54CF
  5
54CF
331
5506
  5
5506
331
5490
  5
5490
331
54D7
  5
54D7
331
550E
  5
550E
331
5498
  5
5498
331
54A0
  5
54A0
331
54DF
  5
54DF
331
54E7
  5
54E7
331
5453
  5
5453
331
545B
  5
545B
331
5463
  5
5463
331
546B
  5
546B
331
5515
  5
5515
331
54A8
  5
54A8
331
54EF
  5
54EF
331
54B0
  5
54B0
331
54F7
  5
54F7
331
54B8
  5
54B8
331
54C0
  5
54C0
331
54FF
  5
54FF
331
5473
  5
5473
331
547B
  5
547B
331
5444
  5
5444
331
5483
  5
5483
331
544C
  5
544C
331
5489
  5
5489
331
54C8
  5
54C8
331
5491
  5
5491
331
54D0
  5
54D0
331
5507
  5
5507
331
550F
  5
550F
331
5499
  5
5499
331
54D8
  5
54D8
331
54E0
  5
54E0
331
54A1
  5
54A1
331
5454
  5
5454
331
545C
  5
545C
331
5464
  5
5464
331
546C
  5
546C
331
5516
  5
5516
331
54E8
  5
54E8
331
54A9
  5
54A9
331
54B1
  5
54B1
331
54F0
  5
54F0
331
54B9
  5
54B9
331
54F8
  5
54F8
331
54C1
  5
54C1
331
5474
  5
5474
331
547C
  5
547C
331
5484
  5
5484
331
5445
  5
5445
331
544D
  5
544D
331
5500
  5
5500
331
548A
  5
548A
331
54C9
  5
54C9
331
54D1
  5
54D1
331
5508
  5
5508
331
5492
  5
5492
331
549A
  5
549A
331
54D9
  5
54D9
331
54A2
  5
54A2
331
54E1
  5
54E1
331
5455
  5
5455
331
545D
  5
545D
331
5465
  5
5465
331
546D
  5
546D
331
5517
  5
5517
331
54AA
  5
54AA
331
54E9
  5
54E9
331
54F1
  5
54F1
331
54B2
  5
54B2
331
54F9
  5
54F9
331
54BA
  5
54BA
331
54C2
  5
54C2
331
5475
  5
5475
331
547D
  5
547D
331
5446
  5
5446
331
5485
  5
5485
331
544E
  5
544E
331
548B
  5
548B
331
54CA
  5
54CA
331
5501
  5
5501
331
5509
  5
5509
331
5493
  5
5493
331
54D2
  5
54D2
331
549B
  5
549B
331
54DA
  5
54DA
331
54E2
  5
54E2
331
54A3
  5
54A3
331
5456
  5
5456
331
545E
  5
545E
331
5466
  5
5466
331
546E
  5
546E
331
5510
  5
5510
331
54AB
  5
54AB
331
54EA
  5
54EA
331
54B3
  5
54B3
331
54F2
  5
54F2
331
54BB
  5
54BB
331
54FA
  5
54FA
331
54C3
  5
54C3
331
5476
  5
5476
331
547E
  5
547E
331
5486
  5
5486
331
5447
  5
5447
331
544F
  5
544F
331
5502
  5
5502
331
548C
  5
548C
331
54CB
  5
54CB
331
54D3
  5
54D3
331
550A
  5
550A
331
5494
  5
5494
331
549C
  5
549C
331
54DB
  5
54DB
331
54A4
  5
54A4
331
54E3
  5
54E3
331
5457
  5
5457
331
545F
  5
545F
331
5467
  5
5467
331
546F
  5
546F
331
5511
  5
5511
331
54AC
  5
54AC
331
54EB
  5
54EB
331
54F3
  5
54F3
331
54B4
  5
54B4
331
54BC
  5
54BC
331
54FB
  5
54FB
331
54C4
  5
54C4
331
5477
  5
5477
331
547F
  5
547F
331
5448
  5
5448
331
5487
  5
5487
331
548D
  5
548D
331
54CC
  5
54CC
331
5503
  5
5503
331
550B
  5
550B
331
5495
  5
5495
331
54D4
  5
54D4
331
549D
  5
549D
331
54DC
  5
54DC
331
54E4
  5
54E4
331
54A5
  5
54A5
331
5450
  5
5450
331
5458
  5
5458
331
5460
  5
5460
331
5468
  5
5468
331
5512
  5
5512
331
54AD
  5
54AD
331
54EC
  5
54EC
331
54B5
  5
54B5
331
54F4
  5
54F4
331
54BD
  5
54BD
331
54FC
  5
54FC
331
54C5
  5
54C5
331
5470
  5
5470
331
5478
  5
5478
331
5480
  5
5480
331
5449
  5
5449
  0
SORTENTSTABLE
  5
5523
102
{ACAD_REACTORS
330
5522
102
}
330
5522
100
AcDbSortentsTable
330
551F
  0
XRECORD
  5
5716
102
{ACAD_REACTORS
330
5714
102
}
330
5714
100
AcDbXrecord
280
     1
 70
     1
  0
XRECORD
  5
5715
102
{ACAD_REACTORS
330
5714
102
}
330
5714
100
AcDbXrecord
280
     1
 40
1.25
  0
XRECORD
  5
5717
102
{ACAD_REACTORS
330
5714
102
}
330
5714
100
AcDbXrecord
280
     1
 40
1.570796326794896
  0
XRECORD
  5
5719
102
{ACAD_REACTORS
330
5714
102
}
330
5714
100
AcDbXrecord
280
     1
340
431E
  0
XRECORD
  5
571A
102
{ACAD_REACTORS
330
5714
102
}
330
5714
100
AcDbXrecord
280
     1
340
431E
  0
XRECORD
  5
5718
102
{ACAD_REACTORS
330
5714
102
}
330
5714
100
AcDbXrecord
280
     1
340
431E
  0
LAYOUT
  5
4330
102
{ACAD_XDICTIONARY
360
571E
102
}
102
{ACAD_REACTORS
330
4323
102
}
330
4323
100
AcDbPlotSettings
  1

  2
Microsoft Office Document Image Writer
  4

  6

 40
0.0
 41
0.0
 42
0.0
 43
0.0
 44
0.0
 45
0.0
 46
0.0
 47
0.0
 48
0.0
 49
0.0
140
0.0
141
0.0
142
1.0
143
1.0
 70
  1712
 72
     0
 73
     0
 74
     0
  7
yanxiu.ctb
 75
     0
147
1.0
148
0.0
149
0.0
100
AcDbLayout
  1
Model
 70
     1
 71
     0
 10
0.0
 20
0.0
 11
12.0
 21
9.0
 12
0.0
 22
0.0
 32
0.0
 14
0.0
 24
0.0
 34
0.0
 15
0.0
 25
0.0
 35
0.0
146
0.0
 13
0.0
 23
0.0
 33
0.0
 16
1.0
 26
0.0
 36
0.0
 17
0.0
 27
1.0
 37
0.0
 76
     0
330
432D
331
4331
  0
LAYOUT
  5
432C
102
{ACAD_XDICTIONARY
360
571C
102
}
102
{ACAD_REACTORS
330
4323
102
}
330
4323
100
AcDbPlotSettings
  1

  2
Microsoft Office Document Image Writer
  4

  6

 40
0.0
 41
0.0
 42
0.0
 43
0.0
 44
0.0
 45
0.0
 46
0.0
 47
0.0
 48
0.0
 49
0.0
140
0.0
141
0.0
142
1.0
143
1.0
 70
   688
 72
     0
 73
     0
 74
     5
  7
yanxiu.ctb
 75
    16
147
1.0
148
0.0
149
0.0
100
AcDbLayout
  1
布局1
 70
     1
 71
     1
 10
0.0
 20
0.0
 11
12.0
 21
9.0
 12
0.0
 22
0.0
 32
0.0
 14
1.000000000000000E+20
 24
1.000000000000000E+20
 34
1.000000000000000E+20
 15
-1.000000000000000E+20
 25
-1.000000000000000E+20
 35
-1.000000000000000E+20
146
0.0
 13
0.0
 23
0.0
 33
0.0
 16
1.0
 26
0.0
 36
0.0
 17
0.0
 27
1.0
 37
0.0
 76
     0
330
4329
  0
MATERIAL
  5
42D0
102
{ACAD_XDICTIONARY
360
42D1
102
}
102
{ACAD_REACTORS
330
42C7
102
}
330
42C7
100
AcDbMaterial
  1
ByBlock
 72
     0
 43
0.0208333333333333
 43
0.0
 43
0.0
 43
0.0
 43
0.0
 43
0.0208333333333333
 43
0.0
 43
0.0
 43
0.0
 43
0.0
 43
1.0
 43
0.0
 43
0.0
 43
0.0
 43
0.0
 43
1.0
 77
     0
 47
0.0208333333333333
 47
0.0
 47
0.0
 47
0.0
 47
0.0
 47
0.0208333333333333
 47
0.0
 47
0.0
 47
0.0
 47
0.0
 47
1.0
 47
0.0
 47
0.0
 47
0.0
 47
0.0
 47
1.0
171
     0
 49
0.0208333333333333
 49
0.0
 49
0.0
 49
0.0
 49
0.0
 49
0.0208333333333333
 49
0.0
 49
0.0
 49
0.0
 49
0.0
 49
1.0
 49
0.0
 49
0.0
 49
0.0
 49
0.0
 49
1.0
175
     0
142
0.0208333333333333
142
0.0
142
0.0
142
0.0
142
0.0
142
0.0208333333333333
142
0.0
142
0.0
142
0.0
142
0.0
142
1.0
142
0.0
142
0.0
142
0.0
142
0.0
142
1.0
179
     0
144
0.0208333333333333
144
0.0
144
0.0
144
0.0
144
0.0
144
0.0208333333333333
144
0.0
144
0.0
144
0.0
144
0.0
144
1.0
144
0.0
144
0.0
144
0.0
144
0.0
144
1.0
147
0.0208333333333333
147
0.0
147
0.0
147
0.0
147
0.0
147
0.0208333333333333
147
0.0
147
0.0
147
0.0
147
0.0
147
1.0
147
0.0
147
0.0
147
0.0
147
0.0
147
1.0
  0
MATERIAL
  5
42C8
102
{ACAD_XDICTIONARY
360
42C9
102
}
102
{ACAD_REACTORS
330
42C7
102
}
330
42C7
100
AcDbMaterial
  1
ByLayer
 72
     0
 43
0.0208333333333333
 43
0.0
 43
0.0
 43
0.0
 43
0.0
 43
0.0208333333333333
 43
0.0
 43
0.0
 43
0.0
 43
0.0
 43
1.0
 43
0.0
 43
0.0
 43
0.0
 43
0.0
 43
1.0
 77
     0
 47
0.0208333333333333
 47
0.0
 47
0.0
 47
0.0
 47
0.0
 47
0.0208333333333333
 47
0.0
 47
0.0
 47
0.0
 47
0.0
 47
1.0
 47
0.0
 47
0.0
 47
0.0
 47
0.0
 47
1.0
171
     0
 49
0.0208333333333333
 49
0.0
 49
0.0
 49
0.0
 49
0.0
 49
0.0208333333333333
 49
0.0
 49
0.0
 49
0.0
 49
0.0
 49
1.0
 49
0.0
 49
0.0
 49
0.0
 49
0.0
 49
1.0
175
     0
142
0.0208333333333333
142
0.0
142
0.0
142
0.0
142
0.0
142
0.0208333333333333
142
0.0
142
0.0
142
0.0
142
0.0
142
1.0
142
0.0
142
0.0
142
0.0
142
0.0
142
1.0
179
     0
144
0.0208333333333333
144
0.0
144
0.0
144
0.0
144
0.0
144
0.0208333333333333
144
0.0
144
0.0
144
0.0
144
0.0
144
1.0
144
0.0
144
0.0
144
0.0
144
0.0
144
1.0
147
0.0208333333333333
147
0.0
147
0.0
147
0.0
147
0.0
147
0.0208333333333333
147
0.0
147
0.0
147
0.0
147
0.0
147
1.0
147
0.0
147
0.0
147
0.0
147
0.0
147
1.0
  0
MATERIAL
  5
42D8
102
{ACAD_XDICTIONARY
360
42D9
102
}
102
{ACAD_REACTORS
330
42C7
102
}
330
42C7
100
AcDbMaterial
  1
Global
 72
     0
 43
0.0208333333333333
 43
0.0
 43
0.0
 43
0.0
 43
0.0
 43
0.0208333333333333
 43
0.0
 43
0.0
 43
0.0
 43
0.0
 43
1.0
 43
0.0
 43
0.0
 43
0.0
 43
0.0
 43
1.0
 77
     0
 47
0.0208333333333333
 47
0.0
 47
0.0
 47
0.0
 47
0.0
 47
0.0208333333333333
 47
0.0
 47
0.0
 47
0.0
 47
0.0
 47
1.0
 47
0.0
 47
0.0
 47
0.0
 47
0.0
 47
1.0
171
     0
 49
0.0208333333333333
 49
0.0
 49
0.0
 49
0.0
 49
0.0
 49
0.0208333333333333
 49
0.0
 49
0.0
 49
0.0
 49
0.0
 49
1.0
 49
0.0
 49
0.0
 49
0.0
 49
0.0
 49
1.0
175
     0
142
0.0208333333333333
142
0.0
142
0.0
142
0.0
142
0.0
142
0.0208333333333333
142
0.0
142
0.0
142
0.0
142
0.0
142
1.0
142
0.0
142
0.0
142
0.0
142
0.0
142
1.0
179
     0
144
0.0208333333333333
144
0.0
144
0.0
144
0.0
144
0.0
144
0.0208333333333333
144
0.0
144
0.0
144
0.0
144
0.0
144
1.0
144
0.0
144
0.0
144
0.0
144
0.0
144
1.0
147
0.0208333333333333
147
0.0
147
0.0
147
0.0
147
0.0
147
0.0208333333333333
147
0.0
147
0.0
147
0.0
147
0.0
147
1.0
147
0.0
147
0.0
147
0.0
147
0.0
147
1.0
  0
MLEADERSTYLE
  5
4328
102
{ACAD_REACTORS
330
4327
102
}
330
4327
100
AcDbMLeaderStyle
170
     2
171
     1
172
     0
 90
        2
 40
0.0
 41
0.0
173
     1
 91
-1056964608
340
431C
 92
       -2
290
     1
 42
0.09
291
     1
 43
0.36
  3
Standard
 44
0.18
300

342
4317
174
     1
178
     6
175
     1
176
     0
 93
-1056964608
 45
0.18
292
     0
297
     0
 46
0.18
 94
-1056964608
 47
1.0
 49
1.0
140
1.0
293
     1
141
0.0
294
     1
177
     0
142
1.0
295
     0
296
     0
143
0.125
1001
ACAD_MLEADERVER
1070
     2
  0
MLINESTYLE
  5
4321
102
{ACAD_REACTORS
330
4320
102
}
330
4320
100
AcDbMlineStyle
  2
STANDARD
 70
     0
  3

 62
   256
 51
90.0
 52
90.0
 71
     2
 49
0.5
 62
   256
  6
BYLAYER
 49
-0.5
 62
   256
  6
BYLAYER
  0
ACDBPLACEHOLDER
  5
42C6
102
{ACAD_REACTORS
330
42C5
102
}
330
42C5
  0
SCALE
  5
42F5
102
{ACAD_REACTORS
330
42F4
102
}
330
42F4
100
AcDbScale
 70
     0
300
1:1
140
1.0
141
1.0
290
     1
  0
SCALE
  5
42F6
102
{ACAD_REACTORS
330
42F4
102
}
330
42F4
100
AcDbScale
 70
     0
300
1:2
140
1.0
141
2.0
290
     0
  0
SCALE
  5
42F7
102
{ACAD_REACTORS
330
42F4
102
}
330
42F4
100
AcDbScale
 70
     0
300
1:4
140
1.0
141
4.0
290
     0
  0
SCALE
  5
42F8
102
{ACAD_REACTORS
330
42F4
102
}
330
42F4
100
AcDbScale
 70
     0
300
1:5
140
1.0
141
5.0
290
     0
  0
SCALE
  5
42F9
102
{ACAD_REACTORS
330
42F4
102
}
330
42F4
100
AcDbScale
 70
     0
300
1:8
140
1.0
141
8.0
290
     0
  0
SCALE
  5
42FA
102
{ACAD_REACTORS
330
42F4
102
}
330
42F4
100
AcDbScale
 70
     0
300
1:10
140
1.0
141
10.0
290
     0
  0
SCALE
  5
42FB
102
{ACAD_REACTORS
330
42F4
102
}
330
42F4
100
AcDbScale
 70
     0
300
1:16
140
1.0
141
16.0
290
     0
  0
SCALE
  5
42FC
102
{ACAD_REACTORS
330
42F4
102
}
330
42F4
100
AcDbScale
 70
     0
300
1:20
140
1.0
141
20.0
290
     0
  0
SCALE
  5
42FD
102
{ACAD_REACTORS
330
42F4
102
}
330
42F4
100
AcDbScale
 70
     0
300
1:30
140
1.0
141
30.0
290
     0
  0
SCALE
  5
42FE
102
{ACAD_REACTORS
330
42F4
102
}
330
42F4
100
AcDbScale
 70
     0
300
1:40
140
1.0
141
40.0
290
     0
  0
SCALE
  5
42FF
102
{ACAD_REACTORS
330
42F4
102
}
330
42F4
100
AcDbScale
 70
     0
300
1:50
140
1.0
141
50.0
290
     0
  0
SCALE
  5
4300
102
{ACAD_REACTORS
330
42F4
102
}
330
42F4
100
AcDbScale
 70
     0
300
1:100
140
1.0
141
100.0
290
     0
  0
SCALE
  5
4301
102
{ACAD_REACTORS
330
42F4
102
}
330
42F4
100
AcDbScale
 70
     0
300
2:1
140
2.0
141
1.0
290
     0
  0
SCALE
  5
4302
102
{ACAD_REACTORS
330
42F4
102
}
330
42F4
100
AcDbScale
 70
     0
300
4:1
140
4.0
141
1.0
290
     0
  0
SCALE
  5
4303
102
{ACAD_REACTORS
330
42F4
102
}
330
42F4
100
AcDbScale
 70
     0
300
8:1
140
8.0
141
1.0
290
     0
  0
SCALE
  5
4304
102
{ACAD_REACTORS
330
42F4
102
}
330
42F4
100
AcDbScale
 70
     0
300
10:1
140
10.0
141
1.0
290
     0
  0
SCALE
  5
4305
102
{ACAD_REACTORS
330
42F4
102
}
330
42F4
100
AcDbScale
 70
     0
300
100:1
140
100.0
141
1.0
290
     0
  0
SCALE
  5
4306
102
{ACAD_REACTORS
330
42F4
102
}
330
42F4
100
AcDbScale
 70
     0
300
1/128" = 1'-0"
140
0.0078125
141
12.0
290
     0
  0
SCALE
  5
4307
102
{ACAD_REACTORS
330
42F4
102
}
330
42F4
100
AcDbScale
 70
     0
300
1/64" = 1'-0"
140
0.015625
141
12.0
290
     0
  0
SCALE
  5
4308
102
{ACAD_REACTORS
330
42F4
102
}
330
42F4
100
AcDbScale
 70
     0
300
1/32" = 1'-0"
140
0.03125
141
12.0
290
     0
  0
SCALE
  5
4309
102
{ACAD_REACTORS
330
42F4
102
}
330
42F4
100
AcDbScale
 70
     0
300
1/16" = 1'-0"
140
0.0625
141
12.0
290
     0
  0
SCALE
  5
430A
102
{ACAD_REACTORS
330
42F4
102
}
330
42F4
100
AcDbScale
 70
     0
300
3/32" = 1'-0"
140
0.09375
141
12.0
290
     0
  0
SCALE
  5
430B
102
{ACAD_REACTORS
330
42F4
102
}
330
42F4
100
AcDbScale
 70
     0
300
1/8" = 1'-0"
140
0.125
141
12.0
290
     0
  0
SCALE
  5
430C
102
{ACAD_REACTORS
330
42F4
102
}
330
42F4
100
AcDbScale
 70
     0
300
3/16" = 1'-0"
140
0.1875
141
12.0
290
     0
  0
SCALE
  5
430D
102
{ACAD_REACTORS
330
42F4
102
}
330
42F4
100
AcDbScale
 70
     0
300
1/4" = 1'-0"
140
0.25
141
12.0
290
     0
  0
SCALE
  5
430E
102
{ACAD_REACTORS
330
42F4
102
}
330
42F4
100
AcDbScale
 70
     0
300
3/8" = 1'-0"
140
0.375
141
12.0
290
     0
  0
SCALE
  5
430F
102
{ACAD_REACTORS
330
42F4
102
}
330
42F4
100
AcDbScale
 70
     0
300
1/2" = 1'-0"
140
0.5
141
12.0
290
     0
  0
SCALE
  5
4310
102
{ACAD_REACTORS
330
42F4
102
}
330
42F4
100
AcDbScale
 70
     0
300
3/4" = 1'-0"
140
0.75
141
12.0
290
     0
  0
SCALE
  5
4311
102
{ACAD_REACTORS
330
42F4
102
}
330
42F4
100
AcDbScale
 70
     0
300
1" = 1'-0"
140
1.0
141
12.0
290
     0
  0
SCALE
  5
4312
102
{ACAD_REACTORS
330
42F4
102
}
330
42F4
100
AcDbScale
 70
     0
300
1-1/2" = 1'-0"
140
1.5
141
12.0
290
     0
  0
SCALE
  5
4313
102
{ACAD_REACTORS
330
42F4
102
}
330
42F4
100
AcDbScale
 70
     0
300
3" = 1'-0"
140
3.0
141
12.0
290
     0
  0
SCALE
  5
4314
102
{ACAD_REACTORS
330
42F4
102
}
330
42F4
100
AcDbScale
 70
     0
300
6" = 1'-0"
140
6.0
141
12.0
290
     0
  0
SCALE
  5
4315
102
{ACAD_REACTORS
330
42F4
102
}
330
42F4
100
AcDbScale
 70
     0
300
1'-0" = 1'-0"
140
12.0
141
12.0
290
     0
  0
TABLESTYLE
  5
4326
102
{ACAD_XDICTIONARY
360
49FA
102
}
102
{ACAD_REACTORS
330
4325
102
}
330
4325
100
AcDbTableStyle
  3
Standard
 70
     0
 71
     0
 40
0.06
 41
0.06
280
     0
281
     0
  7
STANDARD
140
0.18
170
     2
 62
     0
 63
     7
283
     0
274
    -2
284
     1
 64
     0
275
    -2
285
     1
 65
     0
276
    -2
286
     1
 66
     0
277
    -2
287
     1
 67
     0
278
    -2
288
     1
 68
     0
279
    -2
289
     1
 69
     0
  7
STANDARD
140
0.25
170
     5
 62
     0
 63
     7
283
     0
274
    -2
284
     1
 64
     0
275
    -2
285
     1
 65
     0
276
    -2
286
     1
 66
     0
277
    -2
287
     1
 67
     0
278
    -2
288
     1
 68
     0
279
    -2
289
     1
 69
     0
  7
STANDARD
140
0.18
170
     5
 62
     0
 63
     7
283
     0
274
    -2
284
     1
 64
     0
275
    -2
285
     1
 65
     0
276
    -2
286
     1
 66
     0
277
    -2
287
     1
 67
     0
278
    -2
288
     1
 68
     0
279
    -2
289
     1
 69
     0
  0
VISUALSTYLE
  5
42E6
102
{ACAD_XDICTIONARY
360
5685
102
}
102
{ACAD_REACTORS
330
42E0
102
}
330
42E0
100
AcDbVisualStyle
  2

 70
     4
 71
     0
 72
     2
 73
     0
 90
        0
 40
-0.6
 41
-30.0
 62
     5
 63
     7
 74
     1
 91
        4
 64
     7
 65
   257
 75
     1
175
     1
 42
1.0
 92
        0
 66
   257
 43
1.0
 76
     1
 77
     6
 78
     2
 67
     7
 79
     5
170
     0
171
     0
290
     0
174
     0
 93
        1
 44
0.0
173
     0
291
     0
 45
0.0
1001
ACAD
1000
AcDbSavedByObjectVersion
1070
     0
1000
AcDbSavedByObjectVersion
1070
     0
  0
VISUALSTYLE
  5
42E8
102
{ACAD_XDICTIONARY
360
5689
102
}
102
{ACAD_REACTORS
330
42E0
102
}
330
42E0
100
AcDbVisualStyle
  2

 70
     6
 71
     1
 72
     2
 73
     2
 90
        0
 40
-0.6
 41
-30.0
 62
     5
 63
     7
 74
     2
 91
        2
 64
     7
 65
   257
 75
     2
175
     1
 42
179.0
 92
        0
 66
   257
 43
1.0
 76
     1
 77
     6
 78
     2
 67
     7
 79
     3
170
     0
171
     0
290
     0
174
     0
 93
        1
 44
0.0
173
     0
291
     0
 45
0.0
1001
ACAD
1000
AcDbSavedByObjectVersion
1070
     0
1000
AcDbSavedByObjectVersion
1070
     0
  0
VISUALSTYLE
  5
42E7
102
{ACAD_XDICTIONARY
360
5687
102
}
102
{ACAD_REACTORS
330
42E0
102
}
330
42E0
100
AcDbVisualStyle
  2

 70
     5
 71
     0
 72
     2
 73
     0
 90
        0
 40
-0.6
 41
-30.0
 62
     5
 63
     7
 74
     1
 91
        4
 64
     7
 65
   257
 75
     1
175
     1
 42
1.0
 92
        0
 66
   257
 43
1.0
 76
     1
 77
     6
 78
     2
 67
     7
 79
     5
170
     0
171
     0
290
     0
174
     0
 93
        1
 44
0.0
173
     0
291
     0
 45
0.0
1001
ACAD
1000
AcDbSavedByObjectVersion
1070
     0
1000
AcDbSavedByObjectVersion
1070
     0
  0
VISUALSTYLE
  5
42E5
102
{ACAD_XDICTIONARY
360
5683
102
}
102
{ACAD_REACTORS
330
42E0
102
}
330
42E0
100
AcDbVisualStyle
  2

 70
     7
 71
     1
 72
     0
 73
     1
 90
        0
 40
-0.6
 41
-30.0
 62
     5
 63
     7
 74
     0
 91
        4
 64
     7
 65
   257
 75
     1
175
     1
 42
1.0
 92
        8
 66
     7
 43
1.0
 76
     1
 77
     6
 78
     2
 67
     7
 79
     5
170
     0
171
     0
290
     0
174
     0
 93
        1
 44
0.0
173
     0
291
     1
 45
0.0
1001
ACAD
1000
AcDbSavedByObjectVersion
1070
     0
1000
AcDbSavedByObjectVersion
1070
     0
  0
VISUALSTYLE
  5
42EC
102
{ACAD_XDICTIONARY
360
5691
102
}
102
{ACAD_REACTORS
330
42E0
102
}
330
42E0
100
AcDbVisualStyle
  2

 70
    12
 71
     2
 72
     2
 73
     0
 90
        0
 40
-0.6
 41
-30.0
 62
     5
 63
     7
 74
     1
 91
        4
 64
     7
 65
   257
 75
     1
175
     1
 42
1.0
 92
        8
 66
     7
 43
1.0
 76
     1
 77
     6
 78
     2
 67
     7
 79
     5
170
     0
171
     0
290
     0
174
     0
 93
        1
 44
50.0
173
     0
291
     1
 45
0.0
1001
ACAD
1000
AcDbSavedByObjectVersion
1070
     0
1000
AcDbSavedByObjectVersion
1070
     0
  0
VISUALSTYLE
  5
42F0
102
{ACAD_XDICTIONARY
360
5699
102
}
102
{ACAD_REACTORS
330
42E0
102
}
330
42E0
100
AcDbVisualStyle
  2

 70
    16
 71
     2
 72
     2
 73
     3
 90
        0
 40
-0.6
 41
-30.0
 62
     5
 63
     8
 74
     1
 91
        4
 64
     7
 65
   257
 75
     1
175
     1
 42
1.0
 92
        8
 66
     8
 43
1.0
 76
     1
 77
     6
 78
     2
 67
     7
 79
     5
170
     0
171
     0
290
     0
174
     0
 93
        1
 44
0.0
173
     0
291
     1
 45
0.0
1001
ACAD
1000
AcDbSavedByObjectVersion
1070
     0
1000
AcDbSavedByObjectVersion
1070
     0
  0
VISUALSTYLE
  5
42E9
102
{ACAD_XDICTIONARY
360
568B
102
}
102
{ACAD_REACTORS
330
42E0
102
}
330
42E0
100
AcDbVisualStyle
  2

 70
     9
 71
     3
 72
     2
 73
     0
 90
        0
 40
-0.6
 41
-30.0
 62
     5
 63
     7
 74
     2
 91
        2
 64
     7
 65
   257
 75
     1
175
     1
 42
179.0
 92
        8
 66
     7
 43
1.0
 76
     1
 77
     6
 78
     2
 67
     7
 79
     3
170
     0
171
     0
290
     0
174
     0
 93
        1
 44
0.0
173
     0
291
     0
 45
0.0
1001
ACAD
1000
AcDbSavedByObjectVersion
1070
     0
1000
AcDbSavedByObjectVersion
1070
     0
  0
VISUALSTYLE
  5
42EB
102
{ACAD_XDICTIONARY
360
568F
102
}
102
{ACAD_REACTORS
330
42E0
102
}
330
42E0
100
AcDbVisualStyle
  2

 70
    11
 71
     2
 72
     2
 73
     0
 90
        0
 40
-0.6
 41
-30.0
 62
     5
 63
     7
 74
     1
 91
        4
 64
     7
 65
   257
 75
     1
175
     1
 42
1.0
 92
        8
 66
     7
 43
1.0
 76
     1
 77
     6
 78
     2
 67
     7
 79
     5
170
     0
171
     0
290
     0
174
     0
 93
        1
 44
-50.0
173
     0
291
     1
 45
0.0
1001
ACAD
1000
AcDbSavedByObjectVersion
1070
     0
1000
AcDbSavedByObjectVersion
1070
     0
  0
VISUALSTYLE
  5
42F3
102
{ACAD_XDICTIONARY
360
569F
102
}
102
{ACAD_REACTORS
330
42E0
102
}
330
42E0
100
AcDbVisualStyle
  2

 70
    22
 71
     2
 72
     2
 73
     0
 90
        0
 40
-0.6
 41
-30.0
 62
     5
 63
     7
 74
     1
 91
        4
 64
     7
 65
   257
 75
     1
175
     1
 42
1.0
 92
        8
 66
     7
 43
1.0
 76
     1
 77
     6
 78
     2
 67
     7
 79
     5
170
     0
171
     0
290
     0
174
     0
 93
        1
 44
0.0
173
     0
291
     1
 45
0.0
1001
ACAD
1000
AcDbSavedByObjectVersion
1070
     0
1000
AcDbSavedByObjectVersion
1070
     0
  0
VISUALSTYLE
  5
42EF
102
{ACAD_XDICTIONARY
360
5697
102
}
102
{ACAD_REACTORS
330
42E0
102
}
330
42E0
100
AcDbVisualStyle
  2

 70
    15
 71
     2
 72
     2
 73
     0
 90
        0
 40
-0.6
 41
-30.0
 62
     5
 63
     7
 74
     1
 91
        4
 64
     7
 65
   257
 75
     1
175
     1
 42
1.0
 92
        8
 66
     7
 43
1.0
 76
     1
 77
     6
 78
     2
 67
     7
 79
     5
170
     0
171
     0
290
     0
174
     0
 93
        1
 44
0.0
173
     0
291
     1
 45
0.0
1001
ACAD
1000
AcDbSavedByObjectVersion
1070
     0
1000
AcDbSavedByObjectVersion
1070
     0
  0
VISUALSTYLE
  5
42E1
102
{ACAD_XDICTIONARY
360
567B
102
}
102
{ACAD_REACTORS
330
42E0
102
}
330
42E0
100
AcDbVisualStyle
  2

 70
     0
 71
     2
 72
     1
 73
     1
 90
        2
 40
-0.6
 41
30.0
 62
     5
 63
     7
 74
     0
 91
        4
 64
     7
 65
   257
 75
     1
175
     1
 42
1.0
 92
        8
 66
     7
 43
1.0
 76
     1
 77
     6
 78
     2
 67
     7
 79
     5
170
     0
171
     0
290
     0
174
     0
 93
       13
 44
0.0
173
     0
291
     1
 45
0.0
1001
ACAD
1000
AcDbSavedByObjectVersion
1070
     0
1000
AcDbSavedByObjectVersion
1070
     0
  0
VISUALSTYLE
  5
42E2
102
{ACAD_XDICTIONARY
360
567D
102
}
102
{ACAD_REACTORS
330
42E0
102
}
330
42E0
100
AcDbVisualStyle
  2

 70
     1
 71
     2
 72
     1
 73
     1
 90
        2
 40
-0.6
 41
30.0
 62
     5
 63
     7
 74
     1
 91
        4
 64
     7
 65
   257
 75
     1
175
     1
 42
1.0
 92
        0
 66
   257
 43
1.0
 76
     1
 77
     6
 78
     2
 67
     7
 79
     5
170
     0
171
     0
290
     0
174
     0
 93
       13
 44
0.0
173
     0
291
     1
 45
0.0
1001
ACAD
1000
AcDbSavedByObjectVersion
1070
     0
1000
AcDbSavedByObjectVersion
1070
     0
  0
VISUALSTYLE
  5
42E3
102
{ACAD_XDICTIONARY
360
567F
102
}
102
{ACAD_REACTORS
330
42E0
102
}
330
42E0
100
AcDbVisualStyle
  2

 70
     2
 71
     2
 72
     2
 73
     1
 90
        2
 40
-0.6
 41
30.0
 62
     5
 63
     7
 74
     0
 91
        4
 64
     7
 65
   257
 75
     1
175
     1
 42
1.0
 92
        0
 66
     7
 43
1.0
 76
     1
 77
     6
 78
     2
 67
     7
 79
     5
170
     0
171
     0
290
     0
174
     0
 93
       13
 44
0.0
173
     0
291
     1
 45
0.0
1001
ACAD
1000
AcDbSavedByObjectVersion
1070
     0
1000
AcDbSavedByObjectVersion
1070
     0
  0
VISUALSTYLE
  5
42E4
102
{ACAD_XDICTIONARY
360
5681
102
}
102
{ACAD_REACTORS
330
42E0
102
}
330
42E0
100
AcDbVisualStyle
  2

 70
     3
 71
     2
 72
     2
 73
     1
 90
        2
 40
-0.6
 41
30.0
 62
     5
 63
     7
 74
     1
 91
        4
 64
     7
 65
   257
 75
     1
175
     1
 42
1.0
 92
        0
 66
   257
 43
1.0
 76
     1
 77
     6
 78
     2
 67
     7
 79
     5
170
     0
171
     0
290
     0
174
     0
 93
       13
 44
0.0
173
     0
291
     1
 45
0.0
1001
ACAD
1000
AcDbSavedByObjectVersion
1070
     0
1000
AcDbSavedByObjectVersion
1070
     0
  0
VISUALSTYLE
  5
42F1
102
{ACAD_XDICTIONARY
360
569B
102
}
102
{ACAD_REACTORS
330
42E0
102
}
330
42E0
100
AcDbVisualStyle
  2

 70
    20
 71
     2
 72
     2
 73
     0
 90
        0
 40
-0.6
 41
-30.0
 62
     5
 63
     7
 74
     1
 91
        4
 64
     7
 65
   257
 75
     1
175
     1
 42
1.0
 92
       10
 66
     7
 43
1.0
 76
     1
 77
     6
 78
     2
 67
     7
 79
     5
170
     0
171
     0
290
     0
174
     0
 93
        1
 44
0.0
173
     0
291
     1
 45
0.0
1001
ACAD
1000
AcDbSavedByObjectVersion
1070
     0
1000
AcDbSavedByObjectVersion
1070
     0
  0
VISUALSTYLE
  5
42EE
102
{ACAD_XDICTIONARY
360
5695
102
}
102
{ACAD_REACTORS
330
42E0
102
}
330
42E0
100
AcDbVisualStyle
  2

 70
    14
 71
     2
 72
     2
 73
     0
 90
        0
 40
-0.6
 41
-30.0
 62
     5
 63
     7
 74
     1
 91
        4
 64
     7
 65
   257
 75
     7
175
     7
 42
1.0
 92
        8
 66
     7
 43
1.0
 76
     1
 77
     6
 78
     2
 67
     7
 79
     5
170
     0
171
     0
290
     0
174
     0
 93
        1
 44
0.0
173
     0
291
     1
 45
0.0
1001
ACAD
1000
AcDbSavedByObjectVersion
1070
     0
1000
AcDbSavedByObjectVersion
1070
     0
  0
VISUALSTYLE
  5
42F2
102
{ACAD_XDICTIONARY
360
569D
102
}
102
{ACAD_REACTORS
330
42E0
102
}
330
42E0
100
AcDbVisualStyle
  2

 70
    21
 71
     2
 72
     2
 73
     0
 90
        0
 40
-0.6
 41
-30.0
 62
     5
 63
     7
 74
     1
 91
        4
 64
     7
 65
   257
 75
     1
175
     1
 42
1.0
 92
        9
 66
     7
 43
1.0
 76
     1
 77
     6
 78
     2
 67
     7
 79
     5
170
     0
171
     0
290
     0
174
     0
 93
        1
 44
0.0
173
     0
291
     1
 45
0.0
1001
ACAD
1000
AcDbSavedByObjectVersion
1070
     0
1000
AcDbSavedByObjectVersion
1070
     0
  0
VISUALSTYLE
  5
42EA
102
{ACAD_XDICTIONARY
360
568D
102
}
102
{ACAD_REACTORS
330
42E0
102
}
330
42E0
100
AcDbVisualStyle
  2

 70
     8
 71
     2
 72
     2
 73
     0
 90
        0
 40
-0.6
 41
-30.0
 62
     5
 63
     7
 74
     1
 91
        0
 64
     7
 65
   257
 75
     1
175
     1
 42
1.0
 92
        8
 66
     8
 43
1.0
 76
     1
 77
     6
 78
     2
 67
     7
 79
     5
170
     0
171
     0
290
     0
174
     0
 93
       13
 44
0.0
173
     0
291
     0
 45
0.0
1001
ACAD
1000
AcDbSavedByObjectVersion
1070
     0
1000
AcDbSavedByObjectVersion
1070
     0
  0
VISUALSTYLE
  5
42ED
102
{ACAD_XDICTIONARY
360
5693
102
}
102
{ACAD_REACTORS
330
42E0
102
}
330
42E0
100
AcDbVisualStyle
  2

 70
    13
 71
     2
 72
     2
 73
     0
 90
        0
 40
-0.6
 41
-30.0
 62
     5
 63
     7
 74
     1
 91
        4
 64
     7
 65
   257
 75
     1
175
     1
 42
1.0
 92
       12
 66
     7
 43
1.0
 76
     1
 77
     6
 78
     2
 67
     7
 79
     5
170
     0
171
     0
290
     0
174
     0
 93
        1
 44
0.0
173
     0
291
     1
 45
0.0
1001
ACAD
1000
AcDbSavedByObjectVersion
1070
     0
1000
AcDbSavedByObjectVersion
1070
     0
  0
DICTIONARYVAR
  5
49F5
102
{ACAD_REACTORS
330
49F2
102
}
330
49F2
100
DictionaryVariables
280
     0
  1
1:1
  0
DICTIONARYVAR
  5
49F4
102
{ACAD_REACTORS
330
49F2
102
}
330
49F2
100
DictionaryVariables
280
     0
  1
STANDARD
  0
DICTIONARYVAR
  5
49F3
102
{ACAD_REACTORS
330
49F2
102
}
330
49F2
100
DictionaryVariables
280
     0
  1
STANDARD
  0
DICTIONARYVAR
  5
49F8
102
{ACAD_REACTORS
330
49F2
102
}
330
49F2
100
DictionaryVariables
280
     0
  1
1
  0
DICTIONARYVAR
  5
49F7
102
{ACAD_REACTORS
330
49F2
102
}
330
49F2
100
DictionaryVariables
280
     0
  1
0
  0
DICTIONARYVAR
  5
49F6
102
{ACAD_REACTORS
330
49F2
102
}
330
49F2
100
DictionaryVariables
280
     0
  1
127
  0
DICTIONARYVAR
  5
5670
102
{ACAD_REACTORS
330
49F2
102
}
330
49F2
100
DictionaryVariables
280
     0
  1
0
  0
DICTIONARY
  5
44CA
102
{ACAD_REACTORS
330
44C0
102
}
330
44C0
100
AcDbDictionary
281
     1
  0
VLO-VL
  5
44E5
102
{ACAD_REACTORS
330
44E4
102
}
330
44E4
100
vlo_VL
 90
   -64512
 91
       12
 92
        1
 40
2.5
300
(&VLO-R . 0)
  0
DICTIONARY
  5
571E
330
4330
100
AcDbDictionary
280
     1
281
     1
  3
ACAD_XREC_ROUNDTRIP
360
571F
  0
DICTIONARY
  5
571C
330
432C
100
AcDbDictionary
280
     1
281
     1
  3
ACAD_XREC_ROUNDTRIP
360
571D
  0
DICTIONARY
  5
42D1
330
42D0
100
AcDbDictionary
280
     1
281
     1
  3
ACAD_XREC_ROUNDTRIP
360
4A03
  3
BUMPTILE
360
42D3
  3
DIFFUSETILE
360
42D2
  3
OPACITYTILE
360
42D6
  3
REFLECTIONTILE
360
42D5
  3
REFRACTIONTILE
360
42D7
  3
SPECULARTILE
360
42D4
  0
DICTIONARY
  5
42C9
330
42C8
100
AcDbDictionary
280
     1
281
     1
  3
ACAD_XREC_ROUNDTRIP
360
4A02
  3
BUMPTILE
360
42CB
  3
DIFFUSETILE
360
42CA
  3
OPACITYTILE
360
42CE
  3
REFLECTIONTILE
360
42CD
  3
REFRACTIONTILE
360
42CF
  3
SPECULARTILE
360
42CC
  0
DICTIONARY
  5
42D9
330
42D8
100
AcDbDictionary
280
     1
281
     1
  3
ACAD_XREC_ROUNDTRIP
360
4A04
  3
BUMPTILE
360
42DB
  3
DIFFUSETILE
360
42DA
  3
OPACITYTILE
360
42DE
  3
REFLECTIONTILE
360
42DD
  3
REFRACTIONTILE
360
42DF
  3
SPECULARTILE
360
42DC
  0
DICTIONARY
  5
49FA
330
4326
100
AcDbDictionary
280
     1
281
     1
  3
ACAD_ROUNDTRIP_2008_TABLESTYLE_CELLSTYLEMAP
360
5712
  3
ACAD_XREC_ROUNDTRIP
360
571B
  0
DICTIONARY
  5
5685
330
42E6
100
AcDbDictionary
280
     1
281
     1
  3
ACAD_XREC_ROUNDTRIP
360
5686
  0
DICTIONARY
  5
5689
330
42E8
100
AcDbDictionary
280
     1
281
     1
  3
ACAD_XREC_ROUNDTRIP
360
568A
  0
DICTIONARY
  5
5687
330
42E7
100
AcDbDictionary
280
     1
281
     1
  3
ACAD_XREC_ROUNDTRIP
360
5688
  0
DICTIONARY
  5
5683
330
42E5
100
AcDbDictionary
280
     1
281
     1
  3
ACAD_XREC_ROUNDTRIP
360
5684
  0
DICTIONARY
  5
5691
330
42EC
100
AcDbDictionary
280
     1
281
     1
  3
ACAD_XREC_ROUNDTRIP
360
5692
  0
DICTIONARY
  5
5699
330
42F0
100
AcDbDictionary
280
     1
281
     1
  3
ACAD_XREC_ROUNDTRIP
360
569A
  0
DICTIONARY
  5
568B
330
42E9
100
AcDbDictionary
280
     1
281
     1
  3
ACAD_XREC_ROUNDTRIP
360
568C
  0
DICTIONARY
  5
568F
330
42EB
100
AcDbDictionary
280
     1
281
     1
  3
ACAD_XREC_ROUNDTRIP
360
5690
  0
DICTIONARY
  5
569F
330
42F3
100
AcDbDictionary
280
     1
281
     1
  3
ACAD_XREC_ROUNDTRIP
360
56A0
  0
DICTIONARY
  5
5697
330
42EF
100
AcDbDictionary
280
     1
281
     1
  3
ACAD_XREC_ROUNDTRIP
360
5698
  0
DICTIONARY
  5
567B
330
42E1
100
AcDbDictionary
280
     1
281
     1
  3
ACAD_XREC_ROUNDTRIP
360
567C
  0
DICTIONARY
  5
567D
330
42E2
100
AcDbDictionary
280
     1
281
     1
  3
ACAD_XREC_ROUNDTRIP
360
567E
  0
DICTIONARY
  5
567F
330
42E3
100
AcDbDictionary
280
     1
281
     1
  3
ACAD_XREC_ROUNDTRIP
360
5680
  0
DICTIONARY
  5
5681
330
42E4
100
AcDbDictionary
280
     1
281
     1
  3
ACAD_XREC_ROUNDTRIP
360
5682
  0
DICTIONARY
  5
569B
330
42F1
100
AcDbDictionary
280
     1
281
     1
  3
ACAD_XREC_ROUNDTRIP
360
569C
  0
DICTIONARY
  5
5695
330
42EE
100
AcDbDictionary
280
     1
281
     1
  3
ACAD_XREC_ROUNDTRIP
360
5696
  0
DICTIONARY
  5
569D
330
42F2
100
AcDbDictionary
280
     1
281
     1
  3
ACAD_XREC_ROUNDTRIP
360
569E
  0
DICTIONARY
  5
568D
330
42EA
100
AcDbDictionary
280
     1
281
     1
  3
ACAD_XREC_ROUNDTRIP
360
568E
  0
DICTIONARY
  5
5693
330
42ED
100
AcDbDictionary
280
     1
281
     1
  3
ACAD_XREC_ROUNDTRIP
360
5694
  0
XRECORD
  5
571F
102
{ACAD_REACTORS
330
571E
102
}
330
571E
100
AcDbXrecord
280
     1
102
SHADEPLOT
 70
     0
102
SHADEPLOTRESLEVEL
 70
     2
102
SHADEPLOTCUSTOMDPI
 70
   300
  0
XRECORD
  5
571D
102
{ACAD_REACTORS
330
571C
102
}
330
571C
100
AcDbXrecord
280
     1
102
SHADEPLOT
 70
     0
102
SHADEPLOTRESLEVEL
 70
     2
102
SHADEPLOTCUSTOMDPI
 70
   300
  0
XRECORD
  5
4A03
102
{ACAD_REACTORS
330
42D1
102
}
330
42D1
100
AcDbXrecord
280
     1
102
MATERIAL
148
0.0
149
0.0
149
0.0
 93
        0
 94
      127
282
     0
 72
     0
 77
     0
171
     0
175
     0
179
     0
273
     0
  0
XRECORD
  5
42D3
102
{ACAD_REACTORS
330
42D1
102
}
330
42D1
100
AcDbXrecord
280
     1
270
     1
271
     1
  0
XRECORD
  5
42D2
102
{ACAD_REACTORS
330
42D1
102
}
330
42D1
100
AcDbXrecord
280
     1
270
     1
271
     1
  0
XRECORD
  5
42D6
102
{ACAD_REACTORS
330
42D1
102
}
330
42D1
100
AcDbXrecord
280
     1
270
     1
271
     1
  0
XRECORD
  5
42D5
102
{ACAD_REACTORS
330
42D1
102
}
330
42D1
100
AcDbXrecord
280
     1
270
     1
271
     1
  0
XRECORD
  5
42D7
102
{ACAD_REACTORS
330
42D1
102
}
330
42D1
100
AcDbXrecord
280
     1
270
     1
271
     1
  0
XRECORD
  5
42D4
102
{ACAD_REACTORS
330
42D1
102
}
330
42D1
100
AcDbXrecord
280
     1
270
     1
271
     1
  0
XRECORD
  5
4A02
102
{ACAD_REACTORS
330
42C9
102
}
330
42C9
100
AcDbXrecord
280
     1
102
MATERIAL
148
0.0
149
0.0
149
0.0
 93
        0
 94
      127
282
     0
 72
     0
 77
     0
171
     0
175
     0
179
     0
273
     0
  0
XRECORD
  5
42CB
102
{ACAD_REACTORS
330
42C9
102
}
330
42C9
100
AcDbXrecord
280
     1
270
     1
271
     1
  0
XRECORD
  5
42CA
102
{ACAD_REACTORS
330
42C9
102
}
330
42C9
100
AcDbXrecord
280
     1
270
     1
271
     1
  0
XRECORD
  5
42CE
102
{ACAD_REACTORS
330
42C9
102
}
330
42C9
100
AcDbXrecord
280
     1
270
     1
271
     1
  0
XRECORD
  5
42CD
102
{ACAD_REACTORS
330
42C9
102
}
330
42C9
100
AcDbXrecord
280
     1
270
     1
271
     1
  0
XRECORD
  5
42CF
102
{ACAD_REACTORS
330
42C9
102
}
330
42C9
100
AcDbXrecord
280
     1
270
     1
271
     1
  0
XRECORD
  5
42CC
102
{ACAD_REACTORS
330
42C9
102
}
330
42C9
100
AcDbXrecord
280
     1
270
     1
271
     1
  0
XRECORD
  5
4A04
102
{ACAD_REACTORS
330
42D9
102
}
330
42D9
100
AcDbXrecord
280
     1
102
MATERIAL
148
0.0
149
0.0
149
0.0
 93
        0
 94
      127
282
     0
 72
     0
 77
     0
171
     0
175
     0
179
     0
273
     0
  0
XRECORD
  5
42DB
102
{ACAD_REACTORS
330
42D9
102
}
330
42D9
100
AcDbXrecord
280
     1
270
     1
271
     1
  0
XRECORD
  5
42DA
102
{ACAD_REACTORS
330
42D9
102
}
330
42D9
100
AcDbXrecord
280
     1
270
     1
271
     1
  0
XRECORD
  5
42DE
102
{ACAD_REACTORS
330
42D9
102
}
330
42D9
100
AcDbXrecord
280
     1
270
     1
271
     1
  0
XRECORD
  5
42DD
102
{ACAD_REACTORS
330
42D9
102
}
330
42D9
100
AcDbXrecord
280
     1
270
     1
271
     1
  0
XRECORD
  5
42DF
102
{ACAD_REACTORS
330
42D9
102
}
330
42D9
100
AcDbXrecord
280
     1
270
     1
271
     1
  0
XRECORD
  5
42DC
102
{ACAD_REACTORS
330
42D9
102
}
330
42D9
100
AcDbXrecord
280
     1
270
     1
271
     1
  0
CELLSTYLEMAP
  5
5712
102
{ACAD_REACTORS
330
49FA
102
}
330
49FA
100
AcDbCellStyleMap
 90
        3
300
CELLSTYLE
  1
TABLEFORMAT_BEGIN
 90
        5
170
     1
 91
        0
 92
    32768
 62
   257
 93
        1
300
CONTENTFORMAT
  1
CONTENTFORMAT_BEGIN
 90
        0
 91
        0
 92
      512
 93
        0
300

 40
0.0
140
1.0
 94
        5
 62
     0
340
4317
144
0.25
309
CONTENTFORMAT_END
171
     1
301
MARGIN
  1
CELLMARGIN_BEGIN
 40
0.06
 40
0.06
 40
0.06
 40
0.06
 40
0.18
 40
0.18
309
CELLMARGIN_END
 94
        6
 95
        1
302
GRIDFORMAT
  1
GRIDFORMAT_BEGIN
 90
        0
 91
        1
 62
     0
 92
       -2
340
0
 93
        0
 40
0.045
309
GRIDFORMAT_END
 95
        2
302
GRIDFORMAT
  1
GRIDFORMAT_BEGIN
 90
        0
 91
        1
 62
     0
 92
       -2
340
0
 93
        0
 40
0.045
309
GRIDFORMAT_END
 95
        4
302
GRIDFORMAT
  1
GRIDFORMAT_BEGIN
 90
        0
 91
        1
 62
     0
 92
       -2
340
0
 93
        0
 40
0.045
309
GRIDFORMAT_END
 95
        8
302
GRIDFORMAT
  1
GRIDFORMAT_BEGIN
 90
        0
 91
        1
 62
     0
 92
       -2
340
0
 93
        0
 40
0.045
309
GRIDFORMAT_END
 95
       16
302
GRIDFORMAT
  1
GRIDFORMAT_BEGIN
 90
        0
 91
        1
 62
     0
 92
       -2
340
0
 93
        0
 40
0.045
309
GRIDFORMAT_END
 95
       32
302
GRIDFORMAT
  1
GRIDFORMAT_BEGIN
 90
        0
 91
        1
 62
     0
 92
       -2
340
0
 93
        0
 40
0.045
309
GRIDFORMAT_END
309
TABLEFORMAT_END
  1
CELLSTYLE_BEGIN
 90
        1
 91
        1
300
_TITLE
309
CELLSTYLE_END
300
CELLSTYLE
  1
TABLEFORMAT_BEGIN
 90
        5
170
     1
 91
        0
 92
        0
 62
   257
 93
        1
300
CONTENTFORMAT
  1
CONTENTFORMAT_BEGIN
 90
        0
 91
        0
 92
      512
 93
        0
300

 40
0.0
140
1.0
 94
        5
 62
     0
340
4317
144
0.18
309
CONTENTFORMAT_END
171
     1
301
MARGIN
  1
CELLMARGIN_BEGIN
 40
0.06
 40
0.06
 40
0.06
 40
0.06
 40
0.18
 40
0.18
309
CELLMARGIN_END
 94
        6
 95
        1
302
GRIDFORMAT
  1
GRIDFORMAT_BEGIN
 90
        0
 91
        1
 62
     0
 92
       -2
340
0
 93
        0
 40
0.045
309
GRIDFORMAT_END
 95
        2
302
GRIDFORMAT
  1
GRIDFORMAT_BEGIN
 90
        0
 91
        1
 62
     0
 92
       -2
340
0
 93
        0
 40
0.045
309
GRIDFORMAT_END
 95
        4
302
GRIDFORMAT
  1
GRIDFORMAT_BEGIN
 90
        0
 91
        1
 62
     0
 92
       -2
340
0
 93
        0
 40
0.045
309
GRIDFORMAT_END
 95
        8
302
GRIDFORMAT
  1
GRIDFORMAT_BEGIN
 90
        0
 91
        1
 62
     0
 92
       -2
340
0
 93
        0
 40
0.045
309
GRIDFORMAT_END
 95
       16
302
GRIDFORMAT
  1
GRIDFORMAT_BEGIN
 90
        0
 91
        1
 62
     0
 92
       -2
340
0
 93
        0
 40
0.045
309
GRIDFORMAT_END
 95
       32
302
GRIDFORMAT
  1
GRIDFORMAT_BEGIN
 90
        0
 91
        1
 62
     0
 92
       -2
340
0
 93
        0
 40
0.045
309
GRIDFORMAT_END
309
TABLEFORMAT_END
  1
CELLSTYLE_BEGIN
 90
        2
 91
        1
300
_HEADER
309
CELLSTYLE_END
300
CELLSTYLE
  1
TABLEFORMAT_BEGIN
 90
        5
170
     1
 91
        0
 92
        0
 62
   257
 93
        1
300
CONTENTFORMAT
  1
CONTENTFORMAT_BEGIN
 90
        0
 91
        0
 92
      512
 93
        0
300

 40
0.0
140
1.0
 94
        2
 62
     0
340
4317
144
0.18
309
CONTENTFORMAT_END
171
     1
301
MARGIN
  1
CELLMARGIN_BEGIN
 40
0.06
 40
0.06
 40
0.06
 40
0.06
 40
0.18
 40
0.18
309
CELLMARGIN_END
 94
        6
 95
        1
302
GRIDFORMAT
  1
GRIDFORMAT_BEGIN
 90
        0
 91
        1
 62
     0
 92
       -2
340
0
 93
        0
 40
0.045
309
GRIDFORMAT_END
 95
        2
302
GRIDFORMAT
  1
GRIDFORMAT_BEGIN
 90
        0
 91
        1
 62
     0
 92
       -2
340
0
 93
        0
 40
0.045
309
GRIDFORMAT_END
 95
        4
302
GRIDFORMAT
  1
GRIDFORMAT_BEGIN
 90
        0
 91
        1
 62
     0
 92
       -2
340
0
 93
        0
 40
0.045
309
GRIDFORMAT_END
 95
        8
302
GRIDFORMAT
  1
GRIDFORMAT_BEGIN
 90
        0
 91
        1
 62
     0
 92
       -2
340
0
 93
        0
 40
0.045
309
GRIDFORMAT_END
 95
       16
302
GRIDFORMAT
  1
GRIDFORMAT_BEGIN
 90
        0
 91
        1
 62
     0
 92
       -2
340
0
 93
        0
 40
0.045
309
GRIDFORMAT_END
 95
       32
302
GRIDFORMAT
  1
GRIDFORMAT_BEGIN
 90
        0
 91
        1
 62
     0
 92
       -2
340
0
 93
        0
 40
0.045
309
GRIDFORMAT_END
309
TABLEFORMAT_END
  1
CELLSTYLE_BEGIN
 90
        3
 91
        2
300
_DATA
309
CELLSTYLE_END
  0
XRECORD
  5
571B
102
{ACAD_REACTORS
330
49FA
102
}
330
49FA
100
AcDbXrecord
280
     1
102
ACAD_ROUNDTRIP_PRE2007_TABLESTYLE
 90
      512
 91
        0
  1

 92
      512
 93
        0
  2

 94
      512
 95
        0
  3

  0
XRECORD
  5
5686
102
{ACAD_REACTORS
330
5685
102
}
330
5685
100
AcDbXrecord
280
     1
102
RTVSPropertyOp0
 70
     1
102
RTVSPropertyOp1
 70
     1
102
RTVSPropertyOp2
 70
     1
102
RTVSPropertyOp3
 70
     1
102
RTVSPropertyOp4
 70
     1
102
RTVSPropertyOp5
 70
     1
102
RTVSPropertyOp6
 70
     1
102
RTVSPropertyOp7
 70
     1
102
RTVSPropertyOp8
 70
     1
102
RTVSPropertyOp9
 70
     1
102
RTVSPropertyOp10
 70
     1
102
RTVSPropertyOp11
 70
     1
102
RTVSPropertyOp12
 70
     1
102
RTVSPropertyOp13
 70
     1
102
RTVSPropertyOp14
 70
     1
102
RTVSPropertyOp15
 70
     1
102
RTVSPropertyOp16
 70
     1
102
RTVSPropertyOp17
 70
     1
102
RTVSPropertyOp18
 70
     1
102
RTVSPropertyOp19
 70
     1
102
RTVSPropertyOp20
 70
     1
102
RTVSPropertyOp21
 70
     1
102
RTVSPropertyOp22
 70
     1
102
RTVSPropertyOp23
 70
     1
102
RTVSPropertyOp24
 70
     1
102
RTVSPropertyOp25
 70
     1
102
RTVSPropertyOp26
 70
     1
102
RTVSPropertyOp27
 70
     1
  0
XRECORD
  5
568A
102
{ACAD_REACTORS
330
5689
102
}
330
5689
100
AcDbXrecord
280
     1
102
RTVSPropertyOp0
 70
     1
102
RTVSPropertyOp1
 70
     1
102
RTVSPropertyOp2
 70
     1
102
RTVSPropertyOp3
 70
     1
102
RTVSPropertyOp4
 70
     1
102
RTVSPropertyOp5
 70
     1
102
RTVSPropertyOp6
 70
     1
102
RTVSPropertyOp7
 70
     1
102
RTVSPropertyOp8
 70
     1
102
RTVSPropertyOp9
 70
     1
102
RTVSPropertyOp10
 70
     1
102
RTVSPropertyOp11
 70
     1
102
RTVSPropertyOp12
 70
     1
102
RTVSPropertyOp13
 70
     1
102
RTVSPropertyOp14
 70
     1
102
RTVSPropertyOp15
 70
     1
102
RTVSPropertyOp16
 70
     1
102
RTVSPropertyOp17
 70
     1
102
RTVSPropertyOp18
 70
     1
102
RTVSPropertyOp19
 70
     1
102
RTVSPropertyOp20
 70
     1
102
RTVSPropertyOp21
 70
     1
102
RTVSPropertyOp22
 70
     1
102
RTVSPropertyOp23
 70
     1
102
RTVSPropertyOp24
 70
     1
102
RTVSPropertyOp25
 70
     1
102
RTVSPropertyOp26
 70
     1
102
RTVSPropertyOp27
 70
     1
  0
XRECORD
  5
5688
102
{ACAD_REACTORS
330
5687
102
}
330
5687
100
AcDbXrecord
280
     1
102
RTVSPropertyOp0
 70
     1
102
RTVSPropertyOp1
 70
     1
102
RTVSPropertyOp2
 70
     1
102
RTVSPropertyOp3
 70
     1
102
RTVSPropertyOp4
 70
     1
102
RTVSPropertyOp5
 70
     1
102
RTVSPropertyOp6
 70
     1
102
RTVSPropertyOp7
 70
     1
102
RTVSPropertyOp8
 70
     1
102
RTVSPropertyOp9
 70
     1
102
RTVSPropertyOp10
 70
     1
102
RTVSPropertyOp11
 70
     1
102
RTVSPropertyOp12
 70
     1
102
RTVSPropertyOp13
 70
     1
102
RTVSPropertyOp14
 70
     1
102
RTVSPropertyOp15
 70
     1
102
RTVSPropertyOp16
 70
     1
102
RTVSPropertyOp17
 70
     1
102
RTVSPropertyOp18
 70
     1
102
RTVSPropertyOp19
 70
     1
102
RTVSPropertyOp20
 70
     1
102
RTVSPropertyOp21
 70
     1
102
RTVSPropertyOp22
 70
     1
102
RTVSPropertyOp23
 70
     1
102
RTVSPropertyOp24
 70
     1
102
RTVSPropertyOp25
 70
     1
102
RTVSPropertyOp26
 70
     1
102
RTVSPropertyOp27
 70
     1
  0
XRECORD
  5
5684
102
{ACAD_REACTORS
330
5683
102
}
330
5683
100
AcDbXrecord
280
     1
102
RTVSPropertyOp0
 70
     1
102
RTVSPropertyOp1
 70
     1
102
RTVSPropertyOp2
 70
     1
102
RTVSPropertyOp3
 70
     1
102
RTVSPropertyOp4
 70
     1
102
RTVSPropertyOp5
 70
     1
102
RTVSPropertyOp6
 70
     1
102
RTVSPropertyOp7
 70
     1
102
RTVSPropertyOp8
 70
     1
102
RTVSPropertyOp9
 70
     1
102
RTVSPropertyOp10
 70
     1
102
RTVSPropertyOp11
 70
     1
102
RTVSPropertyOp12
 70
     1
102
RTVSPropertyOp13
 70
     1
102
RTVSPropertyOp14
 70
     1
102
RTVSPropertyOp15
 70
     1
102
RTVSPropertyOp16
 70
     1
102
RTVSPropertyOp17
 70
     1
102
RTVSPropertyOp18
 70
     1
102
RTVSPropertyOp19
 70
     1
102
RTVSPropertyOp20
 70
     1
102
RTVSPropertyOp21
 70
     1
102
RTVSPropertyOp22
 70
     1
102
RTVSPropertyOp23
 70
     1
102
RTVSPropertyOp24
 70
     1
102
RTVSPropertyOp25
 70
     1
102
RTVSPropertyOp26
 70
     1
102
RTVSPropertyOp27
 70
     1
  0
XRECORD
  5
5692
102
{ACAD_REACTORS
330
5691
102
}
330
5691
100
AcDbXrecord
280
     1
102
RTVSPropertyOp0
 70
     1
102
RTVSPropertyOp1
 70
     1
102
RTVSPropertyOp2
 70
     1
102
RTVSPropertyOp3
 70
     1
102
RTVSPropertyOp4
 70
     1
102
RTVSPropertyOp5
 70
     1
102
RTVSPropertyOp6
 70
     1
102
RTVSPropertyOp7
 70
     1
102
RTVSPropertyOp8
 70
     1
102
RTVSPropertyOp9
 70
     1
102
RTVSPropertyOp10
 70
     1
102
RTVSPropertyOp11
 70
     1
102
RTVSPropertyOp12
 70
     1
102
RTVSPropertyOp13
 70
     1
102
RTVSPropertyOp14
 70
     1
102
RTVSPropertyOp15
 70
     1
102
RTVSPropertyOp16
 70
     1
102
RTVSPropertyOp17
 70
     1
102
RTVSPropertyOp18
 70
     1
102
RTVSPropertyOp19
 70
     1
102
RTVSPropertyOp20
 70
     1
102
RTVSPropertyOp21
 70
     1
102
RTVSPropertyOp22
 70
     1
102
RTVSPropertyOp23
 70
     1
102
RTVSPropertyOp24
 70
     1
102
RTVSPropertyOp25
 70
     1
102
RTVSPropertyOp26
 70
     1
102
RTVSPropertyOp27
 70
     1
  0
XRECORD
  5
569A
102
{ACAD_REACTORS
330
5699
102
}
330
5699
100
AcDbXrecord
280
     1
102
RTVSPropertyOp0
 70
     1
102
RTVSPropertyOp1
 70
     1
102
RTVSPropertyOp2
 70
     1
102
RTVSPropertyOp3
 70
     1
102
RTVSPropertyOp4
 70
     1
102
RTVSPropertyOp5
 70
     1
102
RTVSPropertyOp6
 70
     1
102
RTVSPropertyOp7
 70
     1
102
RTVSPropertyOp8
 70
     1
102
RTVSPropertyOp9
 70
     1
102
RTVSPropertyOp10
 70
     1
102
RTVSPropertyOp11
 70
     1
102
RTVSPropertyOp12
 70
     1
102
RTVSPropertyOp13
 70
     1
102
RTVSPropertyOp14
 70
     1
102
RTVSPropertyOp15
 70
     1
102
RTVSPropertyOp16
 70
     1
102
RTVSPropertyOp17
 70
     1
102
RTVSPropertyOp18
 70
     1
102
RTVSPropertyOp19
 70
     1
102
RTVSPropertyOp20
 70
     1
102
RTVSPropertyOp21
 70
     1
102
RTVSPropertyOp22
 70
     1
102
RTVSPropertyOp23
 70
     1
102
RTVSPropertyOp24
 70
     1
102
RTVSPropertyOp25
 70
     1
102
RTVSPropertyOp26
 70
     1
102
RTVSPropertyOp27
 70
     1
  0
XRECORD
  5
568C
102
{ACAD_REACTORS
330
568B
102
}
330
568B
100
AcDbXrecord
280
     1
102
RTVSPropertyOp0
 70
     1
102
RTVSPropertyOp1
 70
     1
102
RTVSPropertyOp2
 70
     1
102
RTVSPropertyOp3
 70
     1
102
RTVSPropertyOp4
 70
     1
102
RTVSPropertyOp5
 70
     1
102
RTVSPropertyOp6
 70
     1
102
RTVSPropertyOp7
 70
     1
102
RTVSPropertyOp8
 70
     1
102
RTVSPropertyOp9
 70
     1
102
RTVSPropertyOp10
 70
     1
102
RTVSPropertyOp11
 70
     1
102
RTVSPropertyOp12
 70
     1
102
RTVSPropertyOp13
 70
     1
102
RTVSPropertyOp14
 70
     1
102
RTVSPropertyOp15
 70
     1
102
RTVSPropertyOp16
 70
     1
102
RTVSPropertyOp17
 70
     1
102
RTVSPropertyOp18
 70
     1
102
RTVSPropertyOp19
 70
     1
102
RTVSPropertyOp20
 70
     1
102
RTVSPropertyOp21
 70
     1
102
RTVSPropertyOp22
 70
     1
102
RTVSPropertyOp23
 70
     1
102
RTVSPropertyOp24
 70
     1
102
RTVSPropertyOp25
 70
     1
102
RTVSPropertyOp26
 70
     1
102
RTVSPropertyOp27
 70
     1
  0
XRECORD
  5
5690
102
{ACAD_REACTORS
330
568F
102
}
330
568F
100
AcDbXrecord
280
     1
102
RTVSPropertyOp0
 70
     1
102
RTVSPropertyOp1
 70
     1
102
RTVSPropertyOp2
 70
     1
102
RTVSPropertyOp3
 70
     1
102
RTVSPropertyOp4
 70
     1
102
RTVSPropertyOp5
 70
     1
102
RTVSPropertyOp6
 70
     1
102
RTVSPropertyOp7
 70
     1
102
RTVSPropertyOp8
 70
     1
102
RTVSPropertyOp9
 70
     1
102
RTVSPropertyOp10
 70
     1
102
RTVSPropertyOp11
 70
     1
102
RTVSPropertyOp12
 70
     1
102
RTVSPropertyOp13
 70
     1
102
RTVSPropertyOp14
 70
     1
102
RTVSPropertyOp15
 70
     1
102
RTVSPropertyOp16
 70
     1
102
RTVSPropertyOp17
 70
     1
102
RTVSPropertyOp18
 70
     1
102
RTVSPropertyOp19
 70
     1
102
RTVSPropertyOp20
 70
     1
102
RTVSPropertyOp21
 70
     1
102
RTVSPropertyOp22
 70
     1
102
RTVSPropertyOp23
 70
     1
102
RTVSPropertyOp24
 70
     1
102
RTVSPropertyOp25
 70
     1
102
RTVSPropertyOp26
 70
     1
102
RTVSPropertyOp27
 70
     1
  0
XRECORD
  5
56A0
102
{ACAD_REACTORS
330
569F
102
}
330
569F
100
AcDbXrecord
280
     1
102
RTVSPropertyOp0
 70
     0
102
RTVSPropertyOp1
 70
     0
102
RTVSPropertyOp2
 70
     0
102
RTVSPropertyOp3
 70
     0
102
RTVSPropertyOp4
 70
     0
102
RTVSPropertyOp5
 70
     0
102
RTVSPropertyOp6
 70
     0
102
RTVSPropertyOp7
 70
     0
102
RTVSPropertyOp8
 70
     0
102
RTVSPropertyOp9
 70
     0
102
RTVSPropertyOp10
 70
     0
102
RTVSPropertyOp11
 70
     0
102
RTVSPropertyOp12
 70
     0
102
RTVSPropertyOp13
 70
     0
102
RTVSPropertyOp14
 70
     2
102
RTVSPropertyOp15
 70
     0
102
RTVSPropertyOp16
 70
     0
102
RTVSPropertyOp17
 70
     0
102
RTVSPropertyOp18
 70
     0
102
RTVSPropertyOp19
 70
     0
102
RTVSPropertyOp20
 70
     0
102
RTVSPropertyOp21
 70
     0
102
RTVSPropertyOp22
 70
     0
102
RTVSPropertyOp23
 70
     0
102
RTVSPropertyOp24
 70
     0
102
RTVSPropertyOp25
 70
     0
102
RTVSPropertyOp26
 70
     0
102
RTVSPropertyOp27
 70
     0
  0
XRECORD
  5
5698
102
{ACAD_REACTORS
330
5697
102
}
330
5697
100
AcDbXrecord
280
     1
102
RTVSPropertyOp0
 70
     1
102
RTVSPropertyOp1
 70
     1
102
RTVSPropertyOp2
 70
     1
102
RTVSPropertyOp3
 70
     1
102
RTVSPropertyOp4
 70
     1
102
RTVSPropertyOp5
 70
     1
102
RTVSPropertyOp6
 70
     1
102
RTVSPropertyOp7
 70
     1
102
RTVSPropertyOp8
 70
     1
102
RTVSPropertyOp9
 70
     1
102
RTVSPropertyOp10
 70
     1
102
RTVSPropertyOp11
 70
     1
102
RTVSPropertyOp12
 70
     1
102
RTVSPropertyOp13
 70
     1
102
RTVSPropertyOp14
 70
     1
102
RTVSPropertyOp15
 70
     1
102
RTVSPropertyOp16
 70
     1
102
RTVSPropertyOp17
 70
     1
102
RTVSPropertyOp18
 70
     1
102
RTVSPropertyOp19
 70
     1
102
RTVSPropertyOp20
 70
     1
102
RTVSPropertyOp21
 70
     1
102
RTVSPropertyOp22
 70
     1
102
RTVSPropertyOp23
 70
     1
102
RTVSPropertyOp24
 70
     1
102
RTVSPropertyOp25
 70
     1
102
RTVSPropertyOp26
 70
     1
102
RTVSPropertyOp27
 70
     1
  0
XRECORD
  5
567C
102
{ACAD_REACTORS
330
567B
102
}
330
567B
100
AcDbXrecord
280
     1
102
RTVSPropertyOp0
 70
     1
102
RTVSPropertyOp1
 70
     1
102
RTVSPropertyOp2
 70
     1
102
RTVSPropertyOp3
 70
     1
102
RTVSPropertyOp4
 70
     1
102
RTVSPropertyOp5
 70
     1
102
RTVSPropertyOp6
 70
     1
102
RTVSPropertyOp7
 70
     1
102
RTVSPropertyOp8
 70
     1
102
RTVSPropertyOp9
 70
     1
102
RTVSPropertyOp10
 70
     1
102
RTVSPropertyOp11
 70
     1
102
RTVSPropertyOp12
 70
     1
102
RTVSPropertyOp13
 70
     1
102
RTVSPropertyOp14
 70
     1
102
RTVSPropertyOp15
 70
     1
102
RTVSPropertyOp16
 70
     1
102
RTVSPropertyOp17
 70
     1
102
RTVSPropertyOp18
 70
     1
102
RTVSPropertyOp19
 70
     1
102
RTVSPropertyOp20
 70
     1
102
RTVSPropertyOp21
 70
     1
102
RTVSPropertyOp22
 70
     1
102
RTVSPropertyOp23
 70
     1
102
RTVSPropertyOp24
 70
     1
102
RTVSPropertyOp25
 70
     1
102
RTVSPropertyOp26
 70
     1
102
RTVSPropertyOp27
 70
     1
  0
XRECORD
  5
567E
102
{ACAD_REACTORS
330
567D
102
}
330
567D
100
AcDbXrecord
280
     1
102
RTVSPropertyOp0
 70
     1
102
RTVSPropertyOp1
 70
     1
102
RTVSPropertyOp2
 70
     1
102
RTVSPropertyOp3
 70
     1
102
RTVSPropertyOp4
 70
     1
102
RTVSPropertyOp5
 70
     1
102
RTVSPropertyOp6
 70
     1
102
RTVSPropertyOp7
 70
     1
102
RTVSPropertyOp8
 70
     1
102
RTVSPropertyOp9
 70
     1
102
RTVSPropertyOp10
 70
     1
102
RTVSPropertyOp11
 70
     1
102
RTVSPropertyOp12
 70
     1
102
RTVSPropertyOp13
 70
     1
102
RTVSPropertyOp14
 70
     1
102
RTVSPropertyOp15
 70
     1
102
RTVSPropertyOp16
 70
     1
102
RTVSPropertyOp17
 70
     1
102
RTVSPropertyOp18
 70
     1
102
RTVSPropertyOp19
 70
     1
102
RTVSPropertyOp20
 70
     1
102
RTVSPropertyOp21
 70
     1
102
RTVSPropertyOp22
 70
     1
102
RTVSPropertyOp23
 70
     1
102
RTVSPropertyOp24
 70
     1
102
RTVSPropertyOp25
 70
     1
102
RTVSPropertyOp26
 70
     1
102
RTVSPropertyOp27
 70
     1
  0
XRECORD
  5
5680
102
{ACAD_REACTORS
330
567F
102
}
330
567F
100
AcDbXrecord
280
     1
102
RTVSPropertyOp0
 70
     1
102
RTVSPropertyOp1
 70
     1
102
RTVSPropertyOp2
 70
     1
102
RTVSPropertyOp3
 70
     1
102
RTVSPropertyOp4
 70
     1
102
RTVSPropertyOp5
 70
     1
102
RTVSPropertyOp6
 70
     1
102
RTVSPropertyOp7
 70
     1
102
RTVSPropertyOp8
 70
     1
102
RTVSPropertyOp9
 70
     1
102
RTVSPropertyOp10
 70
     1
102
RTVSPropertyOp11
 70
     1
102
RTVSPropertyOp12
 70
     1
102
RTVSPropertyOp13
 70
     1
102
RTVSPropertyOp14
 70
     1
102
RTVSPropertyOp15
 70
     1
102
RTVSPropertyOp16
 70
     1
102
RTVSPropertyOp17
 70
     1
102
RTVSPropertyOp18
 70
     1
102
RTVSPropertyOp19
 70
     1
102
RTVSPropertyOp20
 70
     1
102
RTVSPropertyOp21
 70
     1
102
RTVSPropertyOp22
 70
     1
102
RTVSPropertyOp23
 70
     1
102
RTVSPropertyOp24
 70
     1
102
RTVSPropertyOp25
 70
     1
102
RTVSPropertyOp26
 70
     1
102
RTVSPropertyOp27
 70
     1
  0
XRECORD
  5
5682
102
{ACAD_REACTORS
330
5681
102
}
330
5681
100
AcDbXrecord
280
     1
102
RTVSPropertyOp0
 70
     1
102
RTVSPropertyOp1
 70
     1
102
RTVSPropertyOp2
 70
     1
102
RTVSPropertyOp3
 70
     1
102
RTVSPropertyOp4
 70
     1
102
RTVSPropertyOp5
 70
     1
102
RTVSPropertyOp6
 70
     1
102
RTVSPropertyOp7
 70
     1
102
RTVSPropertyOp8
 70
     1
102
RTVSPropertyOp9
 70
     1
102
RTVSPropertyOp10
 70
     1
102
RTVSPropertyOp11
 70
     1
102
RTVSPropertyOp12
 70
     1
102
RTVSPropertyOp13
 70
     1
102
RTVSPropertyOp14
 70
     1
102
RTVSPropertyOp15
 70
     1
102
RTVSPropertyOp16
 70
     1
102
RTVSPropertyOp17
 70
     1
102
RTVSPropertyOp18
 70
     1
102
RTVSPropertyOp19
 70
     1
102
RTVSPropertyOp20
 70
     1
102
RTVSPropertyOp21
 70
     1
102
RTVSPropertyOp22
 70
     1
102
RTVSPropertyOp23
 70
     1
102
RTVSPropertyOp24
 70
     1
102
RTVSPropertyOp25
 70
     1
102
RTVSPropertyOp26
 70
     1
102
RTVSPropertyOp27
 70
     1
  0
XRECORD
  5
569C
102
{ACAD_REACTORS
330
569B
102
}
330
569B
100
AcDbXrecord
280
     1
102
RTVSPropertyOp0
 70
     0
102
RTVSPropertyOp1
 70
     0
102
RTVSPropertyOp2
 70
     0
102
RTVSPropertyOp3
 70
     0
102
RTVSPropertyOp4
 70
     0
102
RTVSPropertyOp5
 70
     0
102
RTVSPropertyOp6
 70
     0
102
RTVSPropertyOp7
 70
     0
102
RTVSPropertyOp8
 70
     0
102
RTVSPropertyOp9
 70
     0
102
RTVSPropertyOp10
 70
     0
102
RTVSPropertyOp11
 70
     0
102
RTVSPropertyOp12
 70
     0
102
RTVSPropertyOp13
 70
     0
102
RTVSPropertyOp14
 70
     2
102
RTVSPropertyOp15
 70
     0
102
RTVSPropertyOp16
 70
     0
102
RTVSPropertyOp17
 70
     0
102
RTVSPropertyOp18
 70
     0
102
RTVSPropertyOp19
 70
     0
102
RTVSPropertyOp20
 70
     0
102
RTVSPropertyOp21
 70
     0
102
RTVSPropertyOp22
 70
     0
102
RTVSPropertyOp23
 70
     0
102
RTVSPropertyOp24
 70
     0
102
RTVSPropertyOp25
 70
     0
102
RTVSPropertyOp26
 70
     0
102
RTVSPropertyOp27
 70
     0
  0
XRECORD
  5
5696
102
{ACAD_REACTORS
330
5695
102
}
330
5695
100
AcDbXrecord
280
     1
102
RTVSPropertyOp0
 70
     1
102
RTVSPropertyOp1
 70
     1
102
RTVSPropertyOp2
 70
     1
102
RTVSPropertyOp3
 70
     1
102
RTVSPropertyOp4
 70
     1
102
RTVSPropertyOp5
 70
     1
102
RTVSPropertyOp6
 70
     1
102
RTVSPropertyOp7
 70
     1
102
RTVSPropertyOp8
 70
     1
102
RTVSPropertyOp9
 70
     1
102
RTVSPropertyOp10
 70
     1
102
RTVSPropertyOp11
 70
     1
102
RTVSPropertyOp12
 70
     1
102
RTVSPropertyOp13
 70
     1
102
RTVSPropertyOp14
 70
     1
102
RTVSPropertyOp15
 70
     1
102
RTVSPropertyOp16
 70
     1
102
RTVSPropertyOp17
 70
     1
102
RTVSPropertyOp18
 70
     1
102
RTVSPropertyOp19
 70
     1
102
RTVSPropertyOp20
 70
     1
102
RTVSPropertyOp21
 70
     1
102
RTVSPropertyOp22
 70
     1
102
RTVSPropertyOp23
 70
     1
102
RTVSPropertyOp24
 70
     1
102
RTVSPropertyOp25
 70
     1
102
RTVSPropertyOp26
 70
     1
102
RTVSPropertyOp27
 70
     1
  0
XRECORD
  5
569E
102
{ACAD_REACTORS
330
569D
102
}
330
569D
100
AcDbXrecord
280
     1
102
RTVSPropertyOp0
 70
     0
102
RTVSPropertyOp1
 70
     0
102
RTVSPropertyOp2
 70
     0
102
RTVSPropertyOp3
 70
     0
102
RTVSPropertyOp4
 70
     0
102
RTVSPropertyOp5
 70
     0
102
RTVSPropertyOp6
 70
     0
102
RTVSPropertyOp7
 70
     0
102
RTVSPropertyOp8
 70
     0
102
RTVSPropertyOp9
 70
     0
102
RTVSPropertyOp10
 70
     0
102
RTVSPropertyOp11
 70
     0
102
RTVSPropertyOp12
 70
     0
102
RTVSPropertyOp13
 70
     0
102
RTVSPropertyOp14
 70
     2
102
RTVSPropertyOp15
 70
     0
102
RTVSPropertyOp16
 70
     0
102
RTVSPropertyOp17
 70
     0
102
RTVSPropertyOp18
 70
     0
102
RTVSPropertyOp19
 70
     0
102
RTVSPropertyOp20
 70
     0
102
RTVSPropertyOp21
 70
     0
102
RTVSPropertyOp22
 70
     0
102
RTVSPropertyOp23
 70
     0
102
RTVSPropertyOp24
 70
     0
102
RTVSPropertyOp25
 70
     0
102
RTVSPropertyOp26
 70
     0
102
RTVSPropertyOp27
 70
     0
  0
XRECORD
  5
568E
102
{ACAD_REACTORS
330
568D
102
}
330
568D
100
AcDbXrecord
280
     1
102
RTVSPropertyOp0
 70
     1
102
RTVSPropertyOp1
 70
     1
102
RTVSPropertyOp2
 70
     1
102
RTVSPropertyOp3
 70
     1
102
RTVSPropertyOp4
 70
     1
102
RTVSPropertyOp5
 70
     1
102
RTVSPropertyOp6
 70
     1
102
RTVSPropertyOp7
 70
     1
102
RTVSPropertyOp8
 70
     1
102
RTVSPropertyOp9
 70
     1
102
RTVSPropertyOp10
 70
     1
102
RTVSPropertyOp11
 70
     1
102
RTVSPropertyOp12
 70
     1
102
RTVSPropertyOp13
 70
     1
102
RTVSPropertyOp14
 70
     1
102
RTVSPropertyOp15
 70
     1
102
RTVSPropertyOp16
 70
     1
102
RTVSPropertyOp17
 70
     1
102
RTVSPropertyOp18
 70
     1
102
RTVSPropertyOp19
 70
     1
102
RTVSPropertyOp20
 70
     1
102
RTVSPropertyOp21
 70
     1
102
RTVSPropertyOp22
 70
     1
102
RTVSPropertyOp23
 70
     1
102
RTVSPropertyOp24
 70
     1
102
RTVSPropertyOp25
 70
     1
102
RTVSPropertyOp26
 70
     1
102
RTVSPropertyOp27
 70
     1
  0
XRECORD
  5
5694
102
{ACAD_REACTORS
330
5693
102
}
330
5693
100
AcDbXrecord
280
     1
102
RTVSPropertyOp0
 70
     1
102
RTVSPropertyOp1
 70
     1
102
RTVSPropertyOp2
 70
     1
102
RTVSPropertyOp3
 70
     1
102
RTVSPropertyOp4
 70
     1
102
RTVSPropertyOp5
 70
     1
102
RTVSPropertyOp6
 70
     1
102
RTVSPropertyOp7
 70
     1
102
RTVSPropertyOp8
 70
     1
102
RTVSPropertyOp9
 70
     1
102
RTVSPropertyOp10
 70
     1
102
RTVSPropertyOp11
 70
     1
102
RTVSPropertyOp12
 70
     1
102
RTVSPropertyOp13
 70
     1
102
RTVSPropertyOp14
 70
     1
102
RTVSPropertyOp15
 70
     1
102
RTVSPropertyOp16
 70
     1
102
RTVSPropertyOp17
 70
     1
102
RTVSPropertyOp18
 70
     1
102
RTVSPropertyOp19
 70
     1
102
RTVSPropertyOp20
 70
     1
102
RTVSPropertyOp21
 70
     1
102
RTVSPropertyOp22
 70
     1
102
RTVSPropertyOp23
 70
     1
102
RTVSPropertyOp24
 70
     1
102
RTVSPropertyOp25
 70
     1
102
RTVSPropertyOp26
 70
     1
102
RTVSPropertyOp27
 70
     1
  0
ENDSEC
  0
EOF
